Quick Browse
Movies
TV shows
Music
Games
Applications
Anime
Other
Facebook
Advertising

Friends
Torrent Download
Movie4u
1337x.to
Torrent Downloads




Verified torrent Joyful Noise 2012 CAM READNFO XViD-26K


    Seeders : 0      Leechers : 0
Hash :AB72D00A5D9D4D86B7520B9C1881286B599532D2
Added :1 Year+ by memory100Verified torrent uploader in Movies
Size :1.78 GB
Stream :WATCH ONLINE @ Movie4u


Joyful Noise 2012 CAM READNFO XViD-26K
Free and Fast Download with Usenet 300GB+ free







Trackers List

Tracker NameLast CheckStatusSeedersLeechers




Torrent File Content (7 files)


Joyful Noise 2012 CAM READNFO XViD-26K
     HDSceneRG.txt -
115 bytes

     Joyful Noise 2012 CAM READNFO XViD-26K.avi -
1.75 GB

     Joyful Noise 2012 CAM READNFO XViD-26K.nfo -
3.73 KB

     Torrent downloaded from Demonoid.me.txt -
46 bytes

     att-networks.com.txt -
39 bytes

     sample.avi -
30.48 MB

     sceneunderground.org.txt -
77 bytes



Description



http://img841.imageshack.us/img841/7167/joyfulnoise.jpg

[code]
Joyful Noise 2012 CAM READNFO XViD-26K

Imdb:
http://www.imdb.com/title/tt1710396/

Plot:
G.G. Sparrow faces off with her choir's newly appointed director, Vi Rose Hill, over the group's

direction as they head into a national competition.

Sources:
HOKNOWS INC-video
HOKNOWS INC-audio
thnxs man

Notes:
READNFO BECAUSE THE SOURCE NEEDED A LOT OF CROPPING :) gets shakey half way which why it needed a tiny

bit more of a crop!
OTHER THAN that THE CAM IS VERY NICE!!!
ADDED FEW FILTERS TO THE VIDEO TO MAKE IT LOOK NICE!
SO like i always say...TAKE IT OR LEAVE IT!

Greetz:
Xtreme

Encode|FYA|ILLUMANTI|CM8|RX|VISION|HDSCENE|NIGHTMAREZ|xTriLL|DTRG|CRYS|REMIXHD|BIDA|RX|REFILL|INSPiRAL

|SIC|ZOMBIESZ|HOPE|Anonymous|GooN
To all the people who have helped me :P you know who you are

Anything to offer email us @: [email protected]

Video
ID : 0
Format : MPEG-4 Visual
Format profile : Advanced [email protected]
Format settings, BVOP : 1
Format settings, QPel : No
Format settings, GMC : No warppoints
Format settings, Matrix : Default (H.263)
Codec ID : XVID
Codec ID/Hint : XviD
Duration : 1h 52mn
Bit rate : 1 997 Kbps
Width : 720 pixels
Height : 336 pixels
Display aspect ratio : 2.2:1
Frame rate : 29.970 fps
Color space : YUV
Chroma subsampling : 4:2:0
Bit depth : 8 bits
Scan type : Progressive
Compression mode : Lossy
Bits/(Pixel*Frame) : 0.275
Stream size : 1.57 GiB (90%)
Writing library : XviD 1.2.1 (UTC 2008-12-04)

Audio
ID : 1
Format : MPEG Audio
Format version : Version 1
Format profile : Layer 3
Mode : Joint stereo
Codec ID : 55
Codec ID/Hint : MP3
Duration : 1h 20mn
Source duration : 1h 20mn
Bit rate mode : Constant
Bit rate : 320 Kbps
Channel(s) : 2 channels
Sampling rate : 48.0 KHz
Compression mode : Lossy
Stream size : 184 MiB (10%)
Alignment : Split accross interleaves
Interleave, duration : 9181 ms (275.16 video frames)
Writing library : LAME3.99r
Encoding settings : -m j -V 4 -q 2 -lowpass 20.5

[/code]
Screens:
http://img833.imageshack.us/img833/7945/vlcsnap2012020714h28m27.png

http://img856.imageshack.us/img856/2875/vlcsnap2012020714h28m10.png

http://img638.imageshack.us/img638/4749/vlcsnap2012020714h28m07.png

http://img576.imageshack.us/img576/9311/vlcsnap2012020714h27m58.png

http://img10.imageshack.us/img10/1232/vlcsnap2012020714h27m54.png

http://img641.imageshack.us/img641/4853/vlcsnap2012020714h28m03.png


http://img851.imageshack.us/img851/5503/26ks.jpg

Thank you smallz for banner!

Related torrents

Torrent NameAddedSizeSeedLeechHealth
1 Year+ - in Movies823.15 MB00
1 Year+ - in Movies1.3 GB738
1 Year+ - in Movies1.3 GB01
1 Year+ - in Movies1.37 GB00
1 Year+ - in Movies1.36 GB11123

Comments (0 Comments)




Please login or create a FREE account to post comments

Latest Searches

| halestorm and | brittany hard | dj lotti | The Voice S11E02 x264 ALTEREGO rar | asphalt 8 airborne 1 8 0i mod apk | pssword | The Magnificent Seven BLURAY BRRIP | hugh laurie didnt it rain full album | passion hd morning dip | what are we becoming |