Quick Browse
Movies
TV shows
Music
Games
Applications
Anime
Other
Facebook
Friends
Torrent Download
Free Movies
1337x.to
Torrent Downloads

Verified torrent Jumping the Broom 2011 TS XViD - IMAGiNE


    Seeders : 2      Leechers : 1
Hash :2795E9E5497BC70EDCDE6FE924AF7256EFCD9228
Added :1 Year+ by robyrsVerified torrent uploader in Movies
Size :737.84 MB
Stream :Watch Full Movies Online @ Movie4u
Share :


Jumping the Broom 2011 TS XViD - IMAGiNE
Anonymous and Direct Download 300GB+ free







Warning! Do not Download Torrents Without a VPN!
Your IP Address is .   And Location is
Your Internet Provider and Government can track your torrent Activity!  Hide your IP ADDRESS with a VPN!
We Strongly Recommend Using OneVPN’s Torrent VPN to Anonymize your Torrenting. It's Very Cheap!

Note :

Please Update (Trackers Info) Before Downloading Torrents to See Updated Seeders And Leechers for Batter Download Speed.

Trackers List

Tracker NameLast CheckStatusSeedersLeechers




Torrent File Content (1 file)


Jumping the Broom 2011 TS XViD - IMAGiNE
     Jumping the Broom 2011 TS XViD - IMAGiNE.avi -
737.84 MB



Description



Jumping the Broom 2011 TS XViD - IMAGiNE

Format : AVI
Format/Info : Audio Video Interleave
Format profile : OpenDML
Duration : 1h 49mn
Overall bit rate : 2 040 Kbps
Writing application : VirtualDubMod 1.5.10.2 (build 2542/release)
Writing library : VirtualDubMod build 2542/release
Original source form : MAX TORRENTZ
Copyright : SIGISMUNT

Video
ID : 0
Format : MPEG-4 Visual
Format profile : [email protected]
Format settings, BVOP : Yes
Format settings, QPel : No
Format settings, GMC : No warppoints
Format settings, Matrix : Custom
Codec ID : XVID
Codec ID/Hint : XviD
Duration : 1h 49mn
Bit rate : 1 650 Kbps
Width : 720 pixels
Height : 384 pixels
Display aspect ratio : 1.875
Frame rate : 23.976 fps
Resolution : 24 bits
Colorimetry : 4:2:0
Scan type : Progressive
Bits/(Pixel*Frame) : 0.249
Stream size : 1.26 GiB (81%)
Writing library : XviD 58

Audio
ID : 1
Format : AC-3
Format/Info : Audio Coding 3
Codec ID : 2000
Duration : 1h 49mn
Bit rate mode : Constant
Bit rate : 384 Kbps
Channel(s) : 6 channels
Channel positions : Front: L C R, Surround: L R, LFE
Sampling rate : 48.0 KHz
Stream size : 301 MiB (19%)
Alignment : Aligned on interleaves
Interleave, duration : 64 ms (1.53 video frames)
Interleave, preload duration : 192 ms

Source: DVDR-TWiZTED (proper encode , perfect a/v/sync quality , sample included)

Uploader Note:This release it's not seedbox supported so please
leave it active as much possible,thanks


Note:If you have something to offer as early releases,seedboxes,
links,accounts,etc please contact us on torentz 3xforum ro
Seed Stats: 20-400 GiB at aprox 10 MiB/sec/20 slots per torrent

How To Get Your Maxspeed (uTorrent)

Torrent Client - Preferences - Bandwidth - Number of connections - Set aprox. 500 for each
Torrent Client - Preferences - BiTorrent - Protocol Encryption - Forced
Bandwidth Allocation - High (Set download/upload limit - Unlimited)
Stop Other Active Torrents - Start downloading and wait for connections.
Enjoy and Seed for at least 1:1 ratio. Don't forget to say thanks/leave reviews.
Before downloading you should check/google search sample "release name""sample".
Greets to all actual/future p2p/scene QUALITY groups and affiliate websites.
Don't trust IMDb robot or bad ratings,always watch some trailers first.
Ignore stupid comments/fake/mislabeled/no-DVDrips/CAM/TS/RAR uploads.
Please spread this release/torrent to your friends/forums/etc.
If you need translation subs visit some subtitles sites.
Report if you see online streaming or other spam links.
Recommended movie player VLC PLAYER.

Related torrents

Torrent NameAddedSizeSeedLeechHealth
1 Year+ - in Movies1.49 GB12
1 Year+ - in Movies1.49 GB1177
1 Year+ - in Movies2.86 GB00
1 Year+ - in Movies1.67 GB00
1 Year+ - in Movies1.67 GB00

Comments (0 Comments)




Please login or create a FREE account to post comments

Latest Searches

| Prince of w | JJ RYAN | carlos john | flac tanita | contra 3 soundtrack | charlee chase friends hot mom | crimson indigo | g wa | holly michaels missy martinez threesome | travel guides thailand |