Quick Browse
Movies
TV shows
Music
Games
Applications
Anime
Other
Facebook
Advertising

Friends
Torrent Download
Movie4u
1337x.to
Torrent Downloads




Verified torrent Just Go With It 2011 R5 LINE XViD - IMAGiNE


    Seeders : 186      Leechers : 280
Hash :A498029AABCB1DE996F8ED69AF54D6F52FBA6C38
Added :1 Year+ by memory100Verified torrent uploader in Movies
Size :1.38 GB
Stream :WATCH ONLINE @ Movie4u


Just Go With It 2011 R5 LINE XViD - IMAGiNE
Free and Fast Download with Usenet 300GB+ free







Trackers List

Tracker NameLast CheckStatusSeedersLeechers




Torrent File Content (8 files)


Just Go With It 2011 R5 LINE XViD - IMAGiNE
     Budget seedboxs.txt -
44 bytes

     Just Go With It 2011 R5 LINE XViD - IMAGiNE.avi -
1.37 GB

     Just Go With It 2011 R5 LINE XViD - IMAGiNE.nfo -
5.07 KB

     Just Go With It 2011 R5 LiNE XViD - IMAGiNE SAMPLE.avi -
10.02 MB

     NW RG.nfo -
12.96 KB

     Pleas read!!!!.txt -
135 bytes

     Torrent downloaded from Demonoid.me.txt -
46 bytes

     Vision Tracker.txt -
109 bytes



Description



http://www.leetleech.org/images/47588998470190554240.jpg

[code]
Just Go With It 2011 R5 LINE XViD - IMAGiNE

Ripper ...........:IMAGiNE IMDB Rating.......:6.1/10
Video Codec.......:XVID Release Date......:14/04/11
Audio Codec.......:MP3 Theatre Date......:02/11/11
Audio Bitrate.....:128 Runtime...........:1h 51mn
Subtitles.........:NIL Language..........:ENGLISH
Resolution........:720 x 304 IMDb URL..........:http://www.imdb.com/title/tt1564367/


DETAILS:

Video
ID : 0
Format : MPEG-4 Visual
Format profile : Advanced [email protected]
Format settings, BVOP : Yes
Format settings, QPel : No
Format settings, GMC : No warppoints
Format settings, Matrix : Default (MPEG)
Muxing mode : Packed bitstream
Codec ID : XVID
Codec ID/Hint : XviD
Duration : 1h 51mn
Bit rate : 1 617 Kbps
Width : 720 pixels
Height : 304 pixels
Display aspect ratio : 2.35:1
Frame rate : 25.000 fps
Color space : YUV
Chroma subsampling : 4:2:0
Bit depth : 8 bits
Scan type : Progressive
Compression mode : Lossy
Bits/(Pixel*Frame) : 0.296
Stream size : 1.26 GiB (92%)
Writing library : XviD 61

Audio
ID : 1
Format : MPEG Audio
Format version : Version 1
Format profile : Layer 3
Mode : Joint stereo
Mode extension : MS Stereo
Codec ID : 55
Codec ID/Hint : MP3
Duration : 1h 51mn
Bit rate mode : Constant
Bit rate : 128 Kbps
Channel(s) : 2 channels
Sampling rate : 44.1 KHz
Compression mode : Lossy
Stream size : 102 MiB (7%)
Alignment : Split accross interleaves
Interleave, duration : 40 ms (1.00 video frame)
Writing library : LAME3.98r
Encoding settings : -m j -V 4 -q 2 -lowpass 17 -b 128

SOURCES:

VIDEO: DVD9 ELEKTRI4KA...Thanks
AUDIO: thanks matey

NOTES:
IMAGiNE bringing you another release..........Just Go With It
Here we are with a nice encode of Just Go With It for you all to enjoy.
we also made a script up for video. Now sharpen resize leveled out the blue
and green toned down the yellow and red and made slightly darker to make the black true
the audio we just sync our very nice Line to our encode...
Fri this full line audio again who knows if it works on ps3



Anyway enjoy folks ....
[/code]
Screens:
http://www.grinshare.com/img/O43RUS.jpg

http://www.grinshare.com/img/PIMJV0.jpg

http://www.grinshare.com/img/IU2WIK.jpg

http://www.grinshare.com/img/K00UKU.jpg

Related torrents

Torrent NameAddedSizeSeedLeechHealth
1 Good
1 Bad
1 Year+ - in Movies1.38 GB121
1 Year+ - in Movies1.38 GB08
Verified torrent
1 Year+ - in Movies1.37 GB738
1 Year+ - in Movies1.52 GB230
1 Year+ - in Movies1.46 GB139802

Comments (0 Comments)




Please login or create a FREE account to post comments

Latest Searches

| Bridget Joness Baby 2016 AAC | Supergirl S02E07 720p HDTV x265 | wrecking ball the voice | BeFikre 2016 1CD Desi PreDVD Rip Hindi x264 MP3 Mafiaking M2Tv | brad pitt movie collection | Christmas religious | holland bon | this ain t me | Mia Malkova December 9 2016 | HuCows 16 09 10 Ting And Weiwei Chinese Hucows XXX 1080p MP4 WEIRD |