Quick Browse
Movies
TV shows
Music
Games
Applications
Anime
Other
Facebook
Advertising

Friends
Torrent Download
Movie4u
1337x.to
Torrent Downloads




Verified torrent Just Go with It (2011) DVDRip XviD-MAXSPEED


    Seeders : 1294      Leechers : 222
Hash :448B4A984CEC17E1B10DF170889DEDE500B4EF32
Added :1 Year+ by piratepediaVerified torrent uploader in Movies
Size :1.74 GB
Stream :WATCH ONLINE @ Movie4u


Just Go with It (2011) DVDRip XviD-MAXSPEED
Free and Fast Download with Usenet 300GB+ free







Trackers List

Tracker NameLast CheckStatusSeedersLeechers




Torrent File Content (8 files)


Just Go with It (2011) DVDRip XviD-MAXSPEED
     Just Go with It (2011) DVDRip XviD-MAXSPEED www.torentz.3xforum.ro.avi -
1.73 GB

     sample.avi -
8.59 MB

     screencaps.jpeg -
792.12 KB

     Just Go with It (2011) DVDRip XviD-MAXSPEED.nfo -
2.63 KB

     Torrent downloaded from Demonoid.me.txt -
46 bytes

     Torrent downloaded from Extratorrent.com.txt -
40 bytes

     Torrent downloaded from Rarbg.com.txt -
33 bytes

     Torrent downloaded from h33t.com.txt -
32 bytes



Description



http://leetleech.org/images/95651568646325038194.jpg


Screens:

http://leetleech.org/images/50917940347364776247.jpg

http://leetleech.org/images/98515155045883448767.jpg

http://leetleech.org/images/22115932670158955532.jpg

http://leetleech.org/images/28564288552714316687.jpg


Alternative:

[code]http://www.postimg.com/image/37000/photo-36844.jpg
http://www.postimg.com/image/37000/photo-36845.jpg
http://www.postimg.com/image/37000/photo-36846.jpg
http://www.postimg.com/image/37000/photo-36847.jpg[/code]

ScreenCaps:

http://www.postimg.com/37000/photo-36848.jpg


[code]Just Go with It (2011) DVDRip XviD-MAXSPEED
Format : AVI
Format/Info : Audio Video Interleave
Format profile : OpenDML
File size : 1.73 GiB
Duration : 1h 56mn
Overall bit rate : 2 125 Kbps
Writing application : VirtualDubMod 1.5.10.2 (build 2542/release)
Writing library : VirtualDubMod build 2542/release
Original source form : MAX TORRENTZ
Copyright : SIGISMUNT

Video
ID : 0
Format : MPEG-4 Visual
Format profile : [email protected]
Format settings, BVOP : Yes
Format settings, QPel : No
Format settings, GMC : No warppoints
Format settings, Matrix : Custom
Codec ID : XVID
Codec ID/Hint : XviD
Duration : 1h 56mn
Bit rate : 1 735 Kbps
Width : 720 pixels
Height : 384 pixels
Display aspect ratio : 1.875
Frame rate : 23.976 fps
Resolution : 24 bits
Colorimetry : 4:2:0
Scan type : Progressive
Bits/(Pixel*Frame) : 0.262
Stream size : 1.41 GiB (82%)
Writing library : XviD 58

Audio
ID : 1
Format : AC-3
Format/Info : Audio Coding 3
Codec ID : 2000
Duration : 1h 56mn
Bit rate mode : Constant
Bit rate : 384 Kbps
Channel(s) : 6 channels
Channel positions : Front: L C R, Surround: L R, LFE
Sampling rate : 48.0 KHz
Stream size : 320 MiB (18%)
Alignment : Aligned on interleaves
Interleave, duration : 64 ms (1.53 video frames)
Interleave, preload duration : 192 ms

Source: DVD+AC3 original audio (perfect a/v/sync quality,sample included)
This torrent is not seedbox supported so please seed it to the MAX

How To Get Your Maxspeed (uTorrent)

Torrent Client - Preferences - Bandwidth - Number of connections - Set aprox. 500 for each
Torrent Client - Preferences - BiTorrent - Protocol Encryption - Forced
Bandwidth Allocation - High (Set download/upload limit - Unlimited)
Stop Other Active Torrents - Start downloading and wait for connections.
Enjoy and Seed for at least 1:1 ratio. Don't forget to say thanks/leave reviews.
Before downloading you should check/google search sample "release name""sample".
Greets to all actual/future p2p/scene QUALITY groups and affiliate websites.
Don't trust IMDb robot or bad ratings,always watch some trailers first.
Ignore stupid comments/fake/mislabeled/no-DVDrips/CAM/TS/RAR uploads.
Please spread this release/torrent to your friends/forums/etc.
If you need translation subs visit some subtitles sites.
Report if you see online streaming or other spam links.
Recommended movie player VLC PLAYER.[/code]

Related torrents

Torrent NameAddedSizeSeedLeechHealth
9 months ago - in Movies1.41 GB00
9 months ago - in Other2.22 GB00
9 months ago - in Movies1.47 GB00
9 months ago - in Movies10.84 GB00
9 months ago - in Other41.44 GB00

Comments (0 Comments)




Please login or create a FREE account to post comments

Latest Searches

| stark series by sigal ehrlich | Timbaland Magoo Missy | Scorpion S03E04 720p HDTV X264 DIMENSION ettv | Cosmos in the dark of the night | Juliette March Help Wanted | hindi mp3 2016 320 | web templates with psd | Sybil don | ManyVids Noir and Jean Stroke Suck and Anal Fuck | TriciaFox Anal Fisting Each Other |