Quick Browse
Movies
TV shows
Music
Games
Applications
Anime
Other
Facebook
Friends
Torrent Download
Free Movies
1337x.to
Torrent Downloads

KBC Season Episode 3rd Nov 2010 Xvid MP4-kasimji.mp4


    Seeders : 1      Leechers : 3
Hash :3C7FF03DB1290780B1AEB1286439C9E13E7EF8ED
Added :1 Year+ by kasimji in TV shows
Size :230.46 MB
Stream :Watch Full Movies Online @ Movie4u
Share :


KBC Season Episode 3rd Nov 2010 Xvid MP4-kasimji.mp4
Anonymous and Direct Download 300GB+ free







Warning! Do not Download Torrents Without a VPN!
Your IP Address is .   And Location is
Your Internet Provider and Government can track your torrent Activity!  Hide your IP ADDRESS with a VPN!
We Strongly Recommend Using OneVPN’s Torrent VPN to Anonymize your Torrenting. It's Very Cheap!

Note :

Please Update (Trackers Info) Before Downloading Torrents to See Updated Seeders And Leechers for Batter Download Speed.

Trackers List

Tracker NameLast CheckStatusSeedersLeechers




Torrent File Content (1 file)


KBC Season Episode 3rd Nov 2010 Xvid MP4-kasimji
     KBC Season Episode 3rd Nov 2010 Xvid MP4-kasimji.mp4 -
230.46 MB



Description



http://img822.imageshack.us/img822/627/kbc.png

General
Complete name : KBC Season Episode 3rd Nov 2010 Xvid MP4-kasimji.mp4
Format : MPEG-4
Format profile : Base Media / Version 2
Codec ID : mp42
File size : 230 MiB
Duration : 1h 4mn
Overall bit rate : 497 Kbps
Encoded date : UTC 2010-11-03 03:49:40
Tagged date : UTC 2010-11-03 03:49:40

Video
ID : 201
Format : AVC
Format/Info : Advanced Video Codec
Format profile : [email protected]
Format settings, CABAC : Yes
Format settings, ReFrames : 2 frames
Codec ID : avc1
Codec ID/Info : Advanced Video Coding
Duration : 1h 4mn
Bit rate mode : Variable
Bit rate : 435 Kbps
Maximum bit rate : 1 275 Kbps
Width : 480 pixels
Height : 360 pixels
Display aspect ratio : 4:3
Frame rate mode : Constant
Frame rate : 25.000 fps
Color space : YUV
Chroma subsampling : 4:2:0
Bit depth : 8 bits
Scan type : Progressive
Bits/(Pixel*Frame) : 0.101
Stream size : 202 MiB (87%)
Writing library : x264 core 68
Tagged date : UTC 2010-11-03 03:49:51

Audio
ID : 101
Format : AAC
Format/Info : Advanced Audio Codec
Format version : Version 4
Format profile : LC
Codec ID : 40
Duration : 1h 4mn
Bit rate mode : Variable
Bit rate : 59.0 Kbps
Maximum bit rate : 73.9 Kbps
Channel(s) : 2 channels
Channel positions : Front: L R
Sampling rate : 44.1 KHz
Stream size : 27.4 MiB (12%)
Encoded date : UTC 2010-11-03 03:49:49
Tagged date : UTC 2010-11-03 03:49:51

Related torrents

Torrent NameAddedSizeSeedLeechHealth
1 Year+ - in TV shows197.05 MB12
1 Year+ - in TV shows189.66 MB12
1 Year+ - in TV shows174.61 MB11
6 months ago - in TV shows441.11 MB00
1 Year+ - in TV shows415.23 MB00

Comments (0 Comments)




Please login or create a FREE account to post comments

Latest Searches

| FAST and FURIOUS 8 2017 | my little sin | mega world creampie | 18 year oral | hot 101 9 hits | blue ed | Emmanuel exitos | rob dyrdeks the fantasy factory | La Habitacion De Fermat Fermat s Room 2007 | hot 101 9 |