Quick Browse
Movies
TV shows
Music
Games
Applications
Anime
Other
Facebook
Advertising

Friends
Torrent Download
Movie4u
1337x.to
Torrent Downloads




KBC Season Episode 4th Nov 2010 Xvid MP4-kasimji.mp4


    Seeders : 1      Leechers : 2
Hash :D92EE1049E8CE6ABFCA6FC8D3889D8E40F91206A
Added :1 Year+ by kasimji in TV shows
Size :197.05 MB
Stream :WATCH ONLINE @ Movie4u


KBC Season Episode 4th Nov 2010 Xvid MP4-kasimji.mp4
Free and Fast Download with Usenet 300GB+ free







Trackers List

Tracker NameLast CheckStatusSeedersLeechers




Torrent File Content (1 file)


KBC Season Episode 4th Nov 2010 Xvid MP4-kasimji
     KBC Season Episode 4th Nov 2010 Xvid MP4-kasimji.mp4 -
197.05 MB



Description



http://img822.imageshack.us/img822/627/kbc.png

General
Complete name : KBC Season Episode 4th Nov 2010 Xvid MP4-kasimji.mp4
Format : MPEG-4
Format profile : Base Media / Version 2
Codec ID : mp42
File size : 197 MiB
Duration : 55mn 27s
Overall bit rate : 497 Kbps
Encoded date : UTC 2010-11-03 23:50:12
Tagged date : UTC 2010-11-03 23:50:12

Video
ID : 201
Format : AVC
Format/Info : Advanced Video Codec
Format profile : [email protected]
Format settings, CABAC : Yes
Format settings, ReFrames : 2 frames
Codec ID : avc1
Codec ID/Info : Advanced Video Coding
Duration : 55mn 27s
Bit rate mode : Variable
Bit rate : 435 Kbps
Maximum bit rate : 1 386 Kbps
Width : 480 pixels
Height : 360 pixels
Display aspect ratio : 4:3
Frame rate mode : Constant
Frame rate : 25.000 fps
Color space : YUV
Chroma subsampling : 4:2:0
Bit depth : 8 bits
Scan type : Progressive
Bits/(Pixel*Frame) : 0.101
Stream size : 172 MiB (87%)
Writing library : x264 core 68
Tagged date : UTC 2010-11-03 23:50:15

Audio
ID : 101
Format : AAC
Format/Info : Advanced Audio Codec
Format version : Version 4
Format profile : LC
Codec ID : 40
Duration : 55mn 27s
Bit rate mode : Variable
Bit rate : 59.0 Kbps
Maximum bit rate : 74.7 Kbps
Channel(s) : 2 channels
Channel positions : Front: L R
Sampling rate : 44.1 KHz
Stream size : 23.4 MiB (12%)
Encoded date : UTC 2010-11-03 23:50:14
Tagged date : UTC 2010-11-03 23:50:15


Related torrents

Torrent NameAddedSizeSeedLeechHealth
1 Year+ - in TV shows230.46 MB13
1 Year+ - in TV shows189.66 MB12
1 Year+ - in TV shows174.61 MB11
28 days ago - in TV shows576.77 MB00
1 Year+ - in TV shows99.38 MB00

Comments (0 Comments)




Please login or create a FREE account to post comments

Latest Searches

| Machine Gun Kelly rap | sizz a m | the night of ita fratposa | The Invisible Woman La Mujer Invisible Bluray Rip | premiere adobe 2017 | tosamo bourne | femalefaketaxi angel long roxi keogh | blaire ivory parents | mom Hot Mom Fucks Daughters Hipster | Willie Nelson Red Headed Stranger |