Quick Browse
Movies
TV shows
Music
Games
Applications
Anime
Other
Facebook
Advertising

Friends
Torrent Download
Movie4u
1337x.to
Torrent Downloads




KBC Season Episode 8th Nov 2010 Xvid MP4-kasimji.mp4


    Seeders : 1      Leechers : 2
Hash :255E3D6B25903F6BFB5D7E7BF8CBE423B51196B4
Added :1 Year+ by kasimji in TV shows
Size :189.66 MB
Stream :WATCH ONLINE @ Movie4u


KBC Season Episode 8th Nov 2010 Xvid MP4-kasimji.mp4
Free and Fast Download with Usenet 300GB+ free







Trackers List

Tracker NameLast CheckStatusSeedersLeechers




Torrent File Content (1 file)


KBC Season Episode 8th Nov 2010 Xvid MP4-kasimji
     KBC Season Episode 8th Nov 2010 Xvid MP4-kasimji.mp4 -
189.66 MB



Description



http://img822.imageshack.us/img822/627/kbc.png

General
Complete name : KBC Season Episode 8th Nov 2010 Xvid MP4-kasimji.mp4
Format : MPEG-4
Format profile : Base Media / Version 2
Codec ID : mp42
File size : 190 MiB
Duration : 55mn 40s
Overall bit rate : 476 Kbps
Encoded date : UTC 2010-11-07 22:33:43
Tagged date : UTC 2010-11-07 22:33:43

Video
ID : 201
Format : AVC
Format/Info : Advanced Video Codec
Format profile : [email protected]
Format settings, CABAC : Yes
Format settings, ReFrames : 2 frames
Codec ID : avc1
Codec ID/Info : Advanced Video Coding
Duration : 55mn 40s
Bit rate mode : Variable
Bit rate : 414 Kbps
Maximum bit rate : 1 313 Kbps
Width : 480 pixels
Height : 360 pixels
Display aspect ratio : 4:3
Frame rate mode : Constant
Frame rate : 25.000 fps
Color space : YUV
Chroma subsampling : 4:2:0
Bit depth : 8 bits
Scan type : Progressive
Bits/(Pixel*Frame) : 0.096
Stream size : 165 MiB (87%)
Writing library : x264 core 68
Tagged date : UTC 2010-11-07 22:33:47

Audio
ID : 101
Format : AAC
Format/Info : Advanced Audio Codec
Format version : Version 4
Format profile : LC
Codec ID : 40
Duration : 55mn 40s
Bit rate mode : Variable
Bit rate : 59.0 Kbps
Maximum bit rate : 73.9 Kbps
Channel(s) : 2 channels
Channel positions : Front: L R
Sampling rate : 44.1 KHz
Stream size : 23.5 MiB (12%)
Encoded date : UTC 2010-11-07 22:33:46
Tagged date : UTC 2010-11-07 22:33:47


Related torrents

Torrent NameAddedSizeSeedLeechHealth
1 Year+ - in TV shows230.46 MB13
1 Year+ - in TV shows197.05 MB12
1 Year+ - in TV shows174.61 MB11
1 Year+ - in TV shows571.57 MB1042
Verified torrent
1 Year+ - in TV shows497.99 MB394

Comments (0 Comments)




Please login or create a FREE account to post comments

Latest Searches

| jennifer s body avi | netter 2015 | emmerdale 22nd June 2010 | a woman s hands | brazzers asian | Moves Like Jagger Maroon 5 | Evasi0n Mac | pink ft t i | Jonathan Charlotte Together TFM 2012 | gossip girl e05 |