Quick Browse
Movies
TV shows
Music
Games
Applications
Anime
Other
Facebook
Advertising

Friends
Torrent Download
Movie4u
1337x.to
Torrent Downloads




KBC Season Episode 9th Nov 2010 Xvid MP4-kasimji.mp4


    Seeders : 1      Leechers : 1
Hash :028079CDF787A3939839F0F4312200483142E853
Added :1 Year+ by kasimji in TV shows
Size :174.61 MB
Stream :WATCH ONLINE @ Movie4u


KBC Season Episode 9th Nov 2010 Xvid MP4-kasimji.mp4
Free and Fast Download with Usenet 300GB+ free







Trackers List

Tracker NameLast CheckStatusSeedersLeechers




Torrent File Content (1 file)


KBC Season Episode 9th Nov 2010 Xvid MP4-kasimji
     KBC Season Episode 9th Nov 2010 Xvid MP4-kasimji.mp4 -
174.61 MB



Description



http://img822.imageshack.us/img822/627/kbc.png

General
Complete name : KBC Season Episode 9th Nov 2010 Xvid MP4-kasimji.mp4
Format : MPEG-4
Format profile : Base Media / Version 2
Codec ID : mp42
File size : 175 MiB
Duration : 51mn 59s
Overall bit rate : 470 Kbps
Encoded date : UTC 2010-11-08 21:36:02
Tagged date : UTC 2010-11-08 21:36:02

Video
ID : 201
Format : AVC
Format/Info : Advanced Video Codec
Format profile : [email protected]
Format settings, CABAC : Yes
Format settings, ReFrames : 2 frames
Codec ID : avc1
Codec ID/Info : Advanced Video Coding
Duration : 51mn 59s
Bit rate mode : Variable
Bit rate : 408 Kbps
Maximum bit rate : 1 408 Kbps
Width : 480 pixels
Height : 360 pixels
Display aspect ratio : 4:3
Frame rate mode : Constant
Frame rate : 25.000 fps
Color space : YUV
Chroma subsampling : 4:2:0
Bit depth : 8 bits
Scan type : Progressive
Bits/(Pixel*Frame) : 0.094
Stream size : 152 MiB (87%)
Writing library : x264 core 68
Tagged date : UTC 2010-11-08 21:36:05

Audio
ID : 101
Format : AAC
Format/Info : Advanced Audio Codec
Format version : Version 4
Format profile : LC
Codec ID : 40
Duration : 51mn 59s
Bit rate mode : Variable
Bit rate : 59.0 Kbps
Maximum bit rate : 73.4 Kbps
Channel(s) : 2 channels
Channel positions : Front: L R
Sampling rate : 44.1 KHz
Stream size : 21.9 MiB (13%)
Encoded date : UTC 2010-11-08 21:36:04
Tagged date : UTC 2010-11-08 21:36:05


Related torrents

Torrent NameAddedSizeSeedLeechHealth
1 Year+ - in TV shows230.46 MB13
1 Year+ - in TV shows197.05 MB12
1 Year+ - in TV shows189.66 MB12
Verified torrent
1 Year+ - in TV shows372.66 MB60
1 Year+ - in Other2.3 GB15

Comments (0 Comments)




Please login or create a FREE account to post comments

Latest Searches

| the joy of squirting new 2014 true love films dvdrip | mighty morphin power rangers 1995 ost | bruce springsteen you can never tell | phish 2014 10 28 bill graham civic auditorium san francisco ca sbd 320kbs | Homo Deus | DAZ3D Izabella 7 pro | full movie thats my boy | kings vs knicks | DDP YOGA Videos Extreme Audio and Tons of | mikki hiiri olipa kerran joulu 1999 dvdr finnish |