Quick Browse
Movies
TV shows
Music
Games
Applications
Anime
Other

Donate and Support

Friends
Torrents.me
Torrent Download
Free Movies
1337x
RARBG
Torrent Downloads

Verified torrent Kadhalan~1CD~DVDRIP~Striker~TDA


    Seeders : 0      Leechers : 0
Hash :B174F469AC532B89DC2D8EC6B8246FB1A5C95524
Added :1 Year+ by striker123Verified torrent uploader in Movies
Size :700.93 MB
Stream :Watch Full Movies Online @ Movie4u
Share :


Kadhalan~1CD~DVDRIP~Striker~TDA
Anonymous and Direct Download 300GB+ free







Warning! Do not Download Torrents Without a VPN!
Your IP Address is .   And Location is
Your Internet Provider and Government can track your torrent Activity!  Hide your IP ADDRESS with a VPN!
We Strongly Recommend Using SpyOFF Torrent VPN to Anonymize your Torrenting. It's FREE For 15 Days!

Note :

Please Update (Trackers Info) Before Downloading Torrents to See Updated Seeders And Leechers for Batter Download Speed.

Trackers List

Tracker NameLast CheckStatusSeedersLeechers




Torrent File Content (1 file)


Kadhalan~1CD~DVDRIP
     Kadhalan~1CD~DVDRIP.mkv -
700.93 MB



Description



http://i55.tinypic.com/2mo5njt.jpg



[COLOR="Magenta"][SIZE="5"]INFO:[/SIZE][/COLOR]

[CODE]
General

Format : Matroska
File size : 701 MiB
Duration : 2h 49mn
Overall bit rate : 578 Kbps
Writing application : HandBrake 0.9.4

Video
ID : 1
Format : AVC
Format/Info : Advanced Video Codec
Format profile : [email protected]
Format settings, CABAC : Yes
Format settings, ReFrames : 3 frames
Muxing mode : Container [email protected]
Codec ID : V_MPEG4/ISO/AVC
Duration : 2h 51mn
Bit rate : 454 Kbps
Nominal bit rate : 460 Kbps
Width : 720 pixels
Height : 384 pixels
Display aspect ratio : 2.25:1
Frame rate : 24.210 fps
Resolution : 24 bits
Colorimetry : 4:2:0
Scan type : Progressive
Bits/(Pixel*Frame) : 0.068
Stream size : 556 MiB (79%)
Writing library : x264 core 79
Encoding settings : cabac=1 / ref=3 / deblock=1:0:0 / analyse=0x3:0x113 / me=hex / subme=7 / psy=1 / psy_rd=1.0:0.0 / mixed_ref=1 / me_range=16 / chroma_me=1 / trellis=1 / 8x8dct=1 / cqm=0 / deadzone=21,11 / chroma_qp_offset=-2 / threads=3 / nr=0 / decimate=1 / mbaff=0 / constrained_intra=0 / bframes=3 / b_pyramid=0 / b_adapt=2 / b_bias=0 / direct=1 / wpredb=1 / wpredp=2 / keyint=300 / keyint_min=30 / scenecut=40 / rc_lookahead=50 / rc=2pass / mbtree=1 / bitrate=460 / ratetol=1.0 / qcomp=0.60 / qpmin=10 / qpmax=51 / qpstep=4 / cplxblur=20.0 / qblur=0.5 / ip_ratio=1.40 / aq=1:1.00
colour_primaries : BT.601-6 525, BT.1358 525, BT.1700 NTSC, SMPTE 170M
transfer_characteristics : BT.709-5, BT.1361
matrix_coefficients : BT.601-6 525, BT.1358 525, BT.1700 NTSC, SMPTE 170M

Audio
ID : 2
Format : MPEG Audio
Format version : Version 1
Format profile : Layer 3
Codec ID : A_MPEG/L3
Codec ID/Hint : MP3
Duration : 2h 49mn
Bit rate mode : Constant
Bit rate : 112 Kbps
Channel(s) : 2 channels
Sampling rate : 48.0 KHz
Resolution : 16 bits
Stream size : 136 MiB (19%)
Writing library : LAME3.98



[/CODE]


[COLOR="Magenta"][SIZE="5"]Screens:[/SIZE][/COLOR]

http://i53.tinypic.com/2wggfaf.jpg

http://i54.tinypic.com/16lef4y.jpg

http://i51.tinypic.com/fvgpl1.jpg

http://i54.tinypic.com/30m2srd.jpg

http://i51.tinypic.com/205e4vn.jpg

http://i56.tinypic.com/2vw8bbm.jpg

http://i56.tinypic.com/2wn35si.jpg


[COLOR="Magenta"][SIZE="5"]~INDIRECT FAST SEEDING~[/SIZE][/COLOR]

Related torrents

Torrent NameAddedSizeSeedLeechHealth
Verified torrent
1 Year+ - in Movies696.95 MB00
Verified torrent
1 Year+ - in Movies701.96 MB23
1 Year+ - in Movies300.37 MB10
1 Year+ - in Movies2.06 GB154
1 Year+ - in Movies494.02 MB84

Comments (0 Comments)




Please login or create a FREE account to post comments

Latest Searches

| out of many one music shaggy | bates motel s01e08 ita | Call of Duty Modern Warfare 3 esp | blood drive sva | rubberball | Nuria Rial Valer Sabadus | Better Call Saul 3x07 Spese ITA WEBMux x264 NovaRip mkv | penetration 2008 | hidden boyfriend | camp x movie |