Quick Browse
Movies
TV shows
Music
Games
Applications
Anime
Other

Donate and Support

Friends
Torrents.me
Torrent Download
Free Movies
1337x
RARBG
Torrent Downloads

Verified torrent Karate Kid 2010 R6 READNFO XViD - IMAGiNE - {XtremeTorrents}


    Seeders : 32      Leechers : 6
Hash :E3DA245BA8BA52E263031BB4C832ABB178300728
Added :1 Year+ by XtremeTorrentsVerified torrent uploader in Movies
Size :1.39 GB
Stream :Watch Full Movies Online @ Movie4u
Share :








Warning! Do not Download Torrents Without a VPN!
Your IP Address is .   And Location is
Your Internet Provider and Government can track your torrent Activity!  Hide your IP ADDRESS with a VPN!
We Strongly Recommend Using SpyOFF Torrent VPN to Anonymize your Torrenting. It's FREE For 15 Days!

Note :

Please Update (Trackers Info) Before Downloading Torrents to See Updated Seeders And Leechers for Batter Download Speed.

Trackers List

Tracker NameLast CheckStatusSeedersLeechers




Torrent File Content (7 files)


Karate Kid 2010 R6 READNFO XViD - IMAGiNE
     Karate Kid 2010 R6 READNFO XViD - IMAGiNE.NFO -
5.43 KB

     Karate Kid 2010 R6 READNFO XViD - IMAGiNE.avi -
1.37 GB

     Karate Kid 2010 R6 READNFO XViD - SAMPLE.avi -
18.72 MB

     NW RG.nfo -
12.96 KB

     NW RG.txt -
127 bytes

     Torrent downloaded from Demonoid.com.txt -
47 bytes

     bsbt.nfo -
5.75 KB



Description



Karate Kid 2010 R6 READNFO XViD - IMAGiNE
********************************************************************************************************************

Ripper ...........: IMAGiNE IMDB Rating.......:5.7/10
Video Codec.......: XVID Release Date......:25/07/10
Audio Codec.......:AC3 Theatre Date......:11/06/10
Audio Bitrate.....:192 Runtime.......:2h 07mn
Subtitles.........:ENG WHEN NEEDED Language..........:ENGLISH
Resolution...... 720 x 320 IMDb URL..........:http://www.imdb.com/title/tt1155076/


DETAILS:

Video
ID : 0
Format : MPEG-4 Visual
Format profile : Advanced [email protected]
Format settings, BVOP : Yes
Format settings, QPel : No
Format settings, GMC : No warppoints
Format settings, Matrix : Default (MPEG)
Muxing mode : Packed bitstream
Codec ID : XVID
Codec ID/Hint : XviD
Duration : 2h 7mn
Bit rate : 1 337 Kbps
Width : 720 pixels
Height : 320 pixels
Display aspect ratio : 2.25
Frame rate : 23.976 fps
Resolution : 24 bits
Colorimetry : 4:2:0
Scan type : Progressive
Bits/(Pixel*Frame) : 0.242
Stream size : 1.19 GiB (87%)
Writing library : XviD 1.2.1 (UTC 2008-12-04)

Audio
ID : 1
Format : AC-3
Format/Info : Audio Coding 3
Codec ID : 2000
Duration : 2h 7mn
Bit rate mode : Constant
Bit rate : 192 Kbps
Channel(s) : 2 channels
Channel positions : L R
Sampling rate : 48.0 KHz
Stream size : 175 MiB (12%)
Alignment : Aligned on interleaves
Interleave, duration : 42 ms (1.00 video frame)
Interleave, preload duration : 512 ms


NOTES:

IMAGiNE bringing you another release.....Karate Kid 2010

Source used was a dvd5 that had a full set of english subs added ....there wasn't any grp tag so ,thanks to whoever
Now the source quailty.....was badly interlace and colouring off and was also not very sharp.Audio was nice and seemed
to be insync.
Work done.....well firstly we took the english.srt file and reomove 100's of lines that wasn't needed and left those that was and resaved it.
Then we made a small script to crop,resize,white balance,rgb eq,sharpness,brightness,contrast and a smoother and drop it into vdub.
Now we've noticed through out the film the colouring changes.....sometimes gets a tint of green come and go....nothing major though.
The audio we jusr remuxed the original AC3 audio track back to it.

Yes we know there are loads of encodes already and we wasn't going to do this but were asked by several users and once we got the dvd5,we thought
sod it and did one! :)

Anyway enjoy,yet another remake
[/code]
Screens
http://img245.imageshack.us/img245/9139/vlcsnap86632.png

Related torrents

Torrent NameAddedSizeSeedLeechHealth
1 Year+ - in Movies1.39 GB82
1 Year+ - in Movies1.39 GB01
1 Year+ - in Movies1.27 GB00
1 Year+ - in Movies1.27 GB00
1 Year+ - in Movies1.27 GB513

Comments (0 Comments)




Please login or create a FREE account to post comments

Latest Searches

| IObit Driver Booster Pro License Key | E book eng complete | MohsinHamid | Rifftrax Double Feature Future Force | zoo 2011 dual | nZU | bag over head | Dirilis | why him proprio lui | castaway on the moon subs nl |