Quick Browse
Movies
TV shows
Music
Games
Applications
Anime
Other

Donate and Support

Friends
Torrents.me
Torrent Download
Free Movies
1337x
RARBG
Torrent Downloads

Verified torrent Killer Elite 2011 KOREAN BRRiP XviD READNFO AC3 - MiSTERE


    Seeders : 1      Leechers : 0
Hash :83B098F262F4B23AE1351AB75F72983ABCF262C7
Added :1 Year+ by memory100Verified torrent uploader in Movies
Size :1.73 GB
Stream :Watch Full Movies Online @ Movie4u
Share :


Killer Elite 2011 KOREAN BRRiP XviD READNFO AC3 - MiSTERE
Anonymous and Direct Download 300GB+ free







Warning! Do not Download Torrents Without a VPN!
Your IP Address is .   And Location is
Your Internet Provider and Government can track your torrent Activity!  Hide your IP ADDRESS with a VPN!
We Strongly Recommend Using SpyOFF Torrent VPN to Anonymize your Torrenting. It's FREE For 15 Days!

Note :

Please Update (Trackers Info) Before Downloading Torrents to See Updated Seeders And Leechers for Batter Download Speed.

Trackers List

Tracker NameLast CheckStatusSeedersLeechers




Torrent File Content (8 files)


Killer Elite 2011 BRRiP XviD READNFO AC3 - MiSTERE
     HDSceneRG.txt -
115 bytes

     Killer Elite 2011 BRRiP XviD READNFO AC3 - MiSTERE.avi -
1.71 GB

     Killer Elite 2011 BRRiP XviD READNFO AC3 - MiSTERE.nfo -
2.18 KB

     Torrent downloaded from Demonoid.me.txt -
46 bytes

     Torrent downloaded from Suprnova.me.txt -
42 bytes

     att-networks.com.txt -
39 bytes

     sample.avi -
17.19 MB

     sceneunderground.org.txt -
77 bytes



Description



http://img836.imageshack.us/img836/1954/killerd.jpg

[code]
Killer Elite 2011KOREAN BRRiP XviD READNFO AC3 - MiSTERE

http://www.imdb.com/title/tt1448755/

Video
ID : 0
Format : MPEG-4 Visual
Format profile : Advanced [email protected]
Format settings, BVOP : 2
Format settings, QPel : No
Format settings, GMC : No warppoints
Format settings, Matrix : Default (H.263)
Muxing mode : Packed bitstream
Codec ID : XVID
Codec ID/Hint : XviD
Duration : 1h 56mn
Bit rate : 1 895 Kbps
Width : 720 pixels
Height : 304 pixels
Display aspect ratio : 2.35:1
Frame rate : 29.970 fps
Color space : YUV
Chroma subsampling : 4:2:0
Bit depth : 8 bits
Scan type : Progressive
Compression mode : Lossy
Bits/(Pixel*Frame) : 0.289
Stream size : 1.54 GiB (90%)
Writing library : XviD 64

Audio
ID : 1
Format : AC-3
Format/Info : Audio Coding 3
Mode extension : CM (complete main)
Codec ID : 2000
Duration : 1h 56mn
Bit rate mode : Constant
Bit rate : 192 Kbps
Channel(s) : 2 channels
Channel positions : Front: L R
Sampling rate : 48.0 KHz
Bit depth : 16 bits
Compression mode : Lossy
Stream size : 160 MiB (9%)
Alignment : Aligned on interleaves
Interleave, duration : 33 ms (1.00 video frame)

Plot:
When his mentor is taken captive, a retired member of Britain's Elite Special Air Service is forced into action. His mission: kill three assassins dispatched by their cunning leader.

Notes:
Sharpened Resized and tweaked RGB
*Subs hardcoded in Korean throughout
[/code]
Screens:
http://img407.imageshack.us/img407/8804/43240360.png

http://img510.imageshack.us/img510/1113/71321334.png

http://img14.imageshack.us/img14/8695/85293349.png

http://img28.imageshack.us/img28/2990/64261106.png

http://img39.imageshack.us/img39/285/31424058.png


Related torrents

Torrent NameAddedSizeSeedLeechHealth
1 Year+ - in Movies3.44 GB116
1 Year+ - in Movies1.73 GB19
1 Year+ - in Movies3.27 GB415
1 Year+ - in Movies3.05 GB04
1 Year+ - in Movies2.66 GB11

Comments (0 Comments)




Please login or create a FREE account to post comments

Latest Searches

| Perfect Eye Contact | RACKS 2 VIXEN | cambridge history medieval | Super Milk H Cup | lana rhoades povd | u remind e | Wilder mind Mumford Sons | Dad Hacks Helpful Hints to Make Life Easier | the jogger 2013 | Missing S01E05 WEB x264 TASTETV |