Quick Browse
Movies
TV shows
Music
Games
Applications
Anime
Other
Facebook
Advertising

Friends
Torrent Download
Movie4u
1337x.to
Torrent Downloads




Verified torrent Killers[2010]R5.LiNE-LW


    Seeders : 18      Leechers : 0
Hash :6B3A529F3ACDC56E9A688B7B9025E2770EC6471D
Added :1 Year+ by XoLWoXVerified torrent uploader in Movies
Size :702 MB
Stream :WATCH ONLINE @ Movie4u


Killers[2010]R5.LiNE-LW
Free and Fast Download with Usenet 300GB+ free







Trackers List

Tracker NameLast CheckStatusSeedersLeechers




Torrent File Content (5 files)


Killers[2010]R5.LiNE-LW
    Cover
          K-Cover.jpg -
92.68 KB

    Info
          Movie Info.nfo -
14.81 KB

          Movie Info.txt -
3.27 KB

    Movie
          Killers[2010]R5.LiNE-LW.avi -
701.89 MB

    Trackers
          tracked_by_h33t_com.txt -
23 bytes



Description



http://i29.tinypic.com/27yr4zk.jpg

[color=red]-------------------------------------------------[/color]
http://i48.tinypic.com/k13v48.jpg

[color=red]-------------------------------------------------[/color]
File Name : Killers[2010]R5.LiNE-LW
Type : Movie
Format : AVI
File Size : 701 MB
Duration : 01:34:12
Language : English
Source : R5.LiNE
Subtitles : None
Genre : Action | Comedy | Romance | Thriller
IMDB Link : http://www.imdb.com/title/tt1103153/
IMDB Rating : 3.7/10
IMDB Votes : 3,542 Votes
[color=red]-------------------------------------------------[/color]
http://i46.tinypic.com/5n13z8.jpg

[color=red]-------------------------------------------------[/color]
Format : MPEG-4 Visual
Format profile : Advanced [email protected]
Format settings, BVOP : Yes
Format settings, QPel : No
Format settings, GMC : No warppoints
Format settings, Matrix : Default (H.263)
Muxing mode : Packed bitstream
Codec ID : XVID
Codec ID/Hint : XviD
Duration : 1h 34mn
Bit rate : 922 Kbps
Width : 672 pixels
Height : 288 pixels
Display aspect ratio : 2.35:1
Frame rate : 25.000 fps
Resolution : 8 bits
Colorimetry : 4:2:0
Scan type : Progressive
Bits/(Pixel*Frame) : 0.191
Stream size : 622 MiB (89%)
Writing library : XviD 1.2.1
[color=red]-------------------------------------------------[/color]
http://i45.tinypic.com/14lof2g.jpg

[color=red]-------------------------------------------------[/color]
Format : MPEG Audio
Format version : Version 1
Format profile : Layer 3
Mode : Joint stereo
Codec ID : 55
Codec ID/Hint : MP3
Duration : 1h 29mn
Bit rate mode : Variable
Bit rate : 113 Kbps
Minimum bit rate : 112 Kbps
Channel(s) : 2 channels
Sampling rate : 44.1 KHz
Stream size : 72.1 MiB (10%)
Alignment : Aligned on interleaves
Interleave, duration : 27 ms (0.69 video frame)
Interleave, preload duration : 529 ms
Writing library : LAME3.98
[color=red]-------------------------------------------------[/color]
http://i46.tinypic.com/16ih2fo.jpg

[color=red]-------------------------------------------------[/color]
When an elite assassin (Ashton Kutcher) marries a
beautiful computer whiz (Katherine Heigl) after a
whirlwind romance, he gives up the gun and settles
down with his new bride. That is, until he learns
that someone from his past has put a contract out
on his life. Now, the couple must go on the run if
they hope to survive and settle the score once and
for all. This action comedy from director Robert
Luketic co-stars Tom Selleck and Catherine O'Hara.

Cast: Ashton Kutcher, Katherine Heigl

Director: Robert Luketic
[color=red]-------------------------------------------------[/color]

http://i49.tinypic.com/2vi137p.jpg

http://i26.tinypic.com/24w7tee.jpg

http://i30.tinypic.com/2qn5xg4.jpg

http://i26.tinypic.com/24g2f45.jpg

http://i25.tinypic.com/1oxbls.jpg

http://i25.tinypic.com/9fwl4z.jpg

Related torrents

Torrent NameAddedSizeSeedLeechHealth
1 Year+ - in Movies701.7 MB30
Verified torrent
1 Year+ - in Movies721.97 MB243
1 Year+ - in Movies701.89 MB2104
1 Year+ - in Movies717.18 MB1715
1 Year+ - in Movies1.46 GB7724

Comments (0 Comments)




Please login or create a FREE account to post comments

Latest Searches

| nightfall black heart | swansoft cnc simulator 7 1 | fantastic beasts where find them 2016 | xhamster busty | MUTEKI TEK 072 | old pussy exam | Orson Welles The Trial | sniper americano pt br | Julia In Bed | the chemical garden |