Quick Browse
Movies
TV shows
Music
Games
Applications
Anime
Other
Facebook
Advertising

Friends
Torrent Download
Movie4u
1337x.to
Torrent Downloads




Verified torrent Killers 2010~1CD~DVDRIP~Striker~TDA


    Seeders : 2      Leechers : 3
Hash :C2862EF146D7330C67CDE4E7DF8D84B2132E4A90
Added :1 Year+ by striker123Verified torrent uploader in Movies
Size :701.96 MB
Stream :WATCH ONLINE @ Movie4u


Killers 2010~1CD~DVDRIP~Striker~TDA
Free and Fast Download with Usenet 300GB+ free







Trackers List

Tracker NameLast CheckStatusSeedersLeechers




Torrent File Content (4 files)


Killers 2010~1CD~DVDRIP~Striker~TDA
     Killers 2010~1CD~DVDRIP~Striker~TDA.avi -
701.29 MB

     TeamTDA.jpg -
681.47 KB

     More Movies.url -
112 bytes

     Tracked By DesiAdda.com.txt -
23 bytes



Description



http://www.imagefreeks.com/images/striker/killers.png


http://www.imagefreeks.com/images/striker/eamtdabanner.jpg



http://www.imagefreeks.com/images/striker/ileinfo.png


[CODE]
General

Format : AVI
Format/Info : Audio Video Interleave
File size : 701 MiB
Duration : 1h 40mn
Overall bit rate : 976 Kbps
Writing application : VirtualDubMod 1.5.4.1 (build 2178/release)
Writing library : VirtualDubMod build 2178/release

Video
ID : 0
Format : MPEG-4 Visual
Format profile : [email protected]
Format settings, BVOP : Yes
Format settings, QPel : No
Format settings, GMC : No warppoints
Format settings, Matrix : Default (H.263)
Muxing mode : Packed bitstream
Codec ID : DX50
Codec ID/Hint : DivX 5
Duration : 1h 40mn
Bit rate : 855 Kbps
Width : 640 pixels
Height : 272 pixels
Display aspect ratio : 2.35:1
Frame rate : 23.976 fps
Resolution : 24 bits
Colorimetry : 4:2:0
Scan type : Progressive
Bits/(Pixel*Frame) : 0.205
Stream size : 614 MiB (88%)
Writing library : XviD 1.2.1 (UTC 2008-12-04)

Audio
ID : 1
Format : MPEG Audio
Format version : Version 1
Format profile : Layer 3
Codec ID : 55
Codec ID/Hint : MP3
Duration : 1h 40mn
Bit rate mode : Constant
Bit rate : 112 Kbps
Channel(s) : 2 channels
Sampling rate : 44.1 KHz
Resolution : 16 bits
Stream size : 80.4 MiB (11%)
Alignment : Split accross interleaves
Interleave, duration : 42 ms (1.00 video frame)
Interleave, preload duration : 500 ms
Writing library : LAME3.90.3


[/CODE]

http://www.imagefreeks.com/images/striker/screens.png


http://www.imagefreeks.com/images/striker/illers20101cddvdripstrikertda.jpg



http://www.imagefreeks.com/images/striker/ownload.png

Related torrents

Torrent NameAddedSizeSeedLeechHealth
Verified torrent
1 Year+ - in Movies696.95 MB00
Verified torrent
1 Year+ - in Movies700.93 MB00
Verified torrent
1 Year+ - in Movies730.5 MB10
Verified torrent
1 Year+ - in Movies706.05 MB20

Comments (0 Comments)




Please login or create a FREE account to post comments

Latest Searches

| release me esther phillips | just mat | Hot Horny In Miami 2 | casting casting | Burning In The Shade | rocco psycho 5 | life is a telenovela | mia lelani ivy rose pink little mia | jordan s | the seven white stripes |