Quick Browse
Movies
TV shows
Music
Games
Applications
Anime
Other
Facebook
Advertising

Friends
Torrent Download
Movie4u
1337x.to
Torrent Downloads




Kimmy Dora (Kambal sa Kyeme) (2009) dvdrip (with extras) m4v


    Seeders : 3      Leechers : 3

Trackers List

Tracker NameLast CheckStatusSeedersLeechers




Torrent File Content (8 files)


Kimi Dora
     Kimmy Dora (Kambal sa Kyeme) (2009) dvdrip m4v.m4v -
945.9 MB

     spring films producers.m4v -
62.99 MB

     behind the scenes.m4v -
53.95 MB

     the making of kimi dora.m4v -
44.87 MB

     teaser 1.m4v -
35.97 MB

     music video.m4v -
26.94 MB

     teaser 2.m4v -
17.9 MB

     Kimmy Dora (Kambal sa Kyeme) (2009) dvdrip m4v.nfo -
4.04 KB



Description



IMDB: http://www.imdb.com/title/tt1465495/

Kimmy Dora (Kambal sa Kyeme) tells the story of twins
Kimmy and Dora, a parody of the soap opera Kambal sa Uma.
It is written by Chris Martinez, the director of the
Cinemalaya award-winning film “100? which also starred
Eugene Domingo.

Eugene Domingo’s leading man in the movie is no other than the
3rd Sexiest Man in the World, Dingdong Dantes. With Piolo as
producer and Dingdong as leading man, what more could you ask for?

Piolo straighten out that Kimmy Dora is not a digital film.
“It is commercial. Mainstream. Malaki rin ang nagastos namin
dito. Magkakaibigan kami sa industriya ang nag-produce nito.”

Joyce Bernal, the director of the box-office movie “For the
First Time” and the top-rating tv series “Marimar” and “Dyesebel”,
will helm Kimmy Dora.

Also starring in the film are Paolo Contis, Miriam Quiambao, Baron
Geisler and Mark Bautista.

Kimmy Dora is the second movie produced by Piolo Pascual, the first
one was “Manila” which starred Rosanna Roces, Angelika Panganiban,
William Martinez, Jay Manalo, and Alessandra de Rossi. Manila premiered
at the Cannes Film Festival in France last May.

General
Complete name : Kimmy Dora (Kambal sa Kyeme) (2009) dvdrip m4v.m4v
Format : MPEG-4
Format profile : Base Media / Version 2
Codec ID : mp42
File size : 946 MiB
Duration : 1h 45mn
Overall bit rate : 1 258 Kbps
Encoded date : UTC 2009-12-09 04:42:19
Tagged date : UTC 2009-12-09 06:23:00
Writing application : HandBrake 0.9.4 2009112300

Video
ID : 1
Format : AVC
Format/Info : Advanced Video Codec
Format profile : [email protected]
Format settings, CABAC : Yes
Format settings, ReFrames : 2 frames
Codec ID : avc1
Codec ID/Info : Advanced Video Coding
Duration : 1h 45mn
Bit rate mode : Variable
Bit rate : 1 126 Kbps
Width : 608 pixels
Height : 416 pixels
Display aspect ratio : 1.462
Frame rate mode : Variable
Frame rate : 29.970 fps
Minimum frame rate : 14.985 fps
Maximum frame rate : 29.970 fps
Resolution : 24 bits
Colorimetry : 4:2:0
Scan type : Progressive
Bits/(Pixel*Frame) : 0.149
Stream size : 846 MiB (89%)
Writing library : x264 core 79


Audio
ID : 2
Format : AAC
Format/Info : Advanced Audio Codec
Format version : Version 4
Format profile : LC
Format settings, SBR : No
Codec ID : 40
Duration : 1h 45mn
Bit rate mode : Variable
Bit rate : 128 Kbps
Maximum bit rate : 156 Kbps
Channel(s) : 2 channels
Channel positions : L R
Sampling rate : 48.0 KHz
Resolution : 16 bits
Stream size : 96.2 MiB (10%)
Language : Tagalog
Encoded date : UTC 2009-12-09 04:42:19
Tagged date : UTC 2009-12-09 06:23:00

Text
ID : 3
Format : Apple text
Codec ID : text
Duration : 1h 45mn
Bit rate mode : Variable
Stream size : 279 Bytes (0%)
Encoded date : UTC 2009-12-09 04:42:19
Tagged date : UTC 2009-12-09 06:23:00


Related torrents

Torrent NameAddedSizeSeedLeechHealth
1 Year+ - in Movies819.54 MB23
1 Year+ - in Movies696.19 MB012
1 Year+ - in Movies764.89 MB00
1 Year+ - in Movies1011.38 MB119
1 Year+ - in Movies702.4 MB00

Comments (0 Comments)




Please login or create a FREE account to post comments

Latest Searches

| 02 | Battlefield 1 Key Activation | ocr pdf mac | Raw 28 evil | Selvaggia 1997 | charlie puth one call away remix tyga | frosty s winter wonderland 1974 | My Cousins Like Anal Creampies Tug Zone 2016 XXX | new town killers 2008 1080p bluray h264 aac rarbg | Arrow Season 5 Episode 6 FULL EPISODE |