Quick Browse
Movies
TV shows
Music
Games
Applications
Anime
Other
Facebook
Advertising

Friends
Torrent Download
Movie4u
1337x.to
Torrent Downloads




King Crimson - Vrooom [Eac Flac Cue-TNTVillage]


    Seeders : 2      Leechers : 4
Hash :DDF2FABCFE50B08E96BC412F3905505DE75CE37F
Added :1 Year+ by submarcosVerified torrent uploader in Music - Music
Size :200.18 MB
Stream :WATCH ONLINE @ Movie4u


King Crimson - Vrooom [Eac Flac Cue-TNTVillage]
Free and Fast Download with Usenet 300GB+ free







Trackers List

Tracker NameLast CheckStatusSeedersLeechers




Torrent File Content (13 files)


King Crimson (1994) - VROOOM
    cover
          cover front.jpg -
1.94 MB

          cover back.jpg -
865.49 KB

          cd.jpg -
283.66 KB

     05 - Thrak.flac -
50.11 MB

     02 - VROOOM.flac -
47.21 MB

     03 - Sex Sleep Eat Drink Dream.flac -
30.59 MB

     06 - When I Say Stop, Continue.flac -
30.11 MB

     07 - One Time.flac -
26.43 MB

     04 - Cage.flac -
11.56 MB

     01 - Introduction.flac -
1.1 MB

     King Crimson - VROOOM.log -
8.44 KB

     VROOOM.cue -
1.32 KB

     King Crimson - VROOOM.m3u -
169 bytes



Description



.: Original Release:.
http://www.tntvillage.scambioetico.org/?act=showrelease&id=262840

[::Cover::]

http://img810.imageshack.us/img810/6836/coverprl.jpg


Artist: King Crimson
Title: Vrooom
Genre: Progressive Rock
Year: 1994

[ :: Tracklist :: ]
01. Intro [0:17]
02. VROOOM [7:16]
03. Sex Sleep Eat Drink Dream [4:42]
04. Cage [1:35]
05. Thrak [7:18]
06. When I Say Stop, Continue [5:20]
07. One Time [4:27]

[ :: Technical Data :: ]
Encoder: EAC 1.02 b2 (Secure Mode,Accuraterip,Test & Copy)
Codec: Flac 1.2.1
Profile: 6

EAC LOG:


Exact Audio Copy V1.0 beta 2 from 29. April 2011

EAC extraction logfile from 22. August 2011, 17:04

King Crimson / VROOOM

Used drive : PIONEER DVD-RW DVR-108 Adapter: 1 ID: 0

Read mode : Secure
Utilize accurate stream : Yes
Defeat audio cache : Yes
Make use of C2 pointers : No

Read offset correction : 48
Overread into Lead-In and Lead-Out : No
Fill up missing offset samples with silence : Yes
Delete leading and trailing silent blocks : No
Null samples used in CRC calculations : Yes
Used interface : Native Win32 interface for Win NT & 2000
Gap handling : Appended to previous track

Used output format : User Defined Encoder
Selected bitrate : 768 kBit/s
Quality : High
Add ID3 tag : No
Command line compressor : C:\NoUAC\Exact Audio Copy\FLAC\FLAC.EXE
Additional command line options : -6 -V -T "ARTIST=%artist%" -T "TITLE=%title%" -T "ALBUM=%albumtitle%"
-T "DATE=%year%" -T "TRACKNUMBER=%tracknr%" -T "GENRE=%genre%"
-T "COMMENT=EAC1.0b2 Secure Mode, Test & Copy, AccurateRip, FLAC 1.2.1 -6 (by Paky)"


TOC of the extracted CD

Track | Start | Length | Start sector | End sector
---------------------------------------------------------
1 | 0:00.00 | 0:18.52 | 0 | 1401
2 | 0:18.52 | 7:16.45 | 1402 | 34146
3 | 7:35.22 | 4:41.68 | 34147 | 55289
4 | 12:17.15 | 1:35.47 | 55290 | 62461
5 | 13:52.62 | 7:18.30 | 62462 | 95341
6 | 21:11.17 | 5:21.23 | 95342 | 119439
7 | 26:32.40 | 4:26.45 | 119440 | 139434


Track 1

Filename C:\Users\Andrea\Desktop\King Crimson (1994) - VROOOM\01 - Introduction.wav

Pre-gap length 0:00:02.00

Peak level 3.2 %
Extraction speed 1.6 X
Track quality 100.0 %
Test CRC 33A6225C
Copy CRC 33A6225C
Accurately ripped (confidence 2) [89F2B3AB] (AR v2)
Copy OK

Track 2

Filename C:\Users\Andrea\Desktop\King Crimson (1994) - VROOOM\02 - VROOOM.wav

Peak level 95.3 %
Extraction speed 4.6 X
Track quality 99.9 %
Test CRC 16E0AECE
Copy CRC 16E0AECE
Accurately ripped (confidence 2) [3A1A05B1] (AR v2)
Copy OK

Track 3

Filename C:\Users\Andrea\Desktop\King Crimson (1994) - VROOOM\03 - Sex Sleep Eat Drink Dream.wav

Peak level 95.3 %
Extraction speed 5.4 X
Track quality 100.0 %
Test CRC 5DEDFD47
Copy CRC 5DEDFD47
Accurately ripped (confidence 2) [2846507C] (AR v2)
Copy OK

Track 4

Filename C:\Users\Andrea\Desktop\King Crimson (1994) - VROOOM\04 - Cage.wav

Pre-gap length 0:00:00.60

Peak level 95.3 %
Extraction speed 3.7 X
Track quality 99.8 %
Test CRC B7F53E66
Copy CRC B7F53E66
Accurately ripped (confidence 2) [1672AE27] (AR v2)
Copy OK

Track 5

Filename C:\Users\Andrea\Desktop\King Crimson (1994) - VROOOM\05 - Thrak.wav

Pre-gap length 0:00:00.22

Peak level 99.2 %
Extraction speed 6.5 X
Track quality 100.0 %
Test CRC E6A6EBFA
Copy CRC E6A6EBFA
Accurately ripped (confidence 2) [11B72F73] (AR v2)
Copy OK

Track 6

Filename C:\Users\Andrea\Desktop\King Crimson (1994) - VROOOM\06 - When I Say Stop, Continue.wav

Peak level 99.0 %
Extraction speed 6.8 X
Track quality 100.0 %
Test CRC 674A20CF
Copy CRC 674A20CF
Accurately ripped (confidence 2) [F93622C4] (AR v2)
Copy OK

Track 7

Filename C:\Users\Andrea\Desktop\King Crimson (1994) - VROOOM\07 - One Time.wav

Pre-gap length 0:00:01.73

Peak level 98.8 %
Extraction speed 6.3 X
Track quality 99.9 %
Test CRC 47B22FAA
Copy CRC 47B22FAA
Accurately ripped (confidence 2) [FF13134F] (AR v2)
Copy OK


All tracks accurately ripped

No errors occurred

End of status report

==== Log checksum 4EE91B0A492233333B958F351F5FF9301F0035882BF3289DA2C1A781DEB30A95 ====

Related torrents

Torrent NameAddedSizeSeedLeechHealth
Verified torrent
1 Year+ - in Music389.13 MB713
Verified torrent
1 Year+ - in Music414.64 MB32
Verified torrent
1 Year+ - in Music367.87 MB118
Verified torrent
1 Year+ - in Music265.29 MB39
Verified torrent
1 Year+ - in Music266.11 MB10

Comments (0 Comments)




Please login or create a FREE account to post comments

Latest Searches

| adult comics foot | queen ts | Legendary Star Lord v01 | How to Persuade People Who Dont Want to be Persuaded | The Ghostmaker 3D 2011 3D SBS | PM FASTrack for the PMP Exam Version 8 | The Place Beyond the Pines 2012 anoxmous | Down To Business audrey bitoni | Ms Madison 4 | new 2016 top U S songs |