Quick Browse
Movies
TV shows
Music
Games
Applications
Anime
Other
Facebook
Advertising

Friends
Torrent Download
Movie4u
1337x.to
Torrent Downloads




Verified torrent Knight And Day (2010) Hindi [email protected]


    Seeders : 0      Leechers : 1

Trackers List

Tracker NameLast CheckStatusSeedersLeechers
http://bigfoot1942.sektori.org:6969/announce1 Year+success00
udp://tracker.coppersurfer.tk:801 Year+success01
http://torrent.gresille.org/announce1 Year+success00
http://tracker.winglai.com/announce1 Year+success00
http://tracker.windsormetalbattery.com/announce1 Year+success00
http://tracker.nwps.ws:6969/announce1 Year+success00
udp://open.demonii.com:1337/announce1 Year+success00
udp://tracker.openbittorrent.com:80/announce1 Year+success00
udp://9.rarbg.com:2710/announce1 Year+success00
http://tracker.trackerfix.com/announce1 Year+success00




Torrent File Content (3 files)


Knight And Day (2010) Hindi Dubbed (www.mastitorrents.com)
     Knight And Day (2010) Hindi Dubbed (www.mastitorrents.com).mkv -
658.24 MB

     Knight And Day.2010.sample.mkv -
3.96 MB

     Torrent Downloaded From www.mastitorrents.com.txt -
312 bytes



Description



[color=red][font=Georgia]General
Complete name :Knight And Day.2010.in hindi.mkv
Format : Matroska
File size : 658 MiB
Duration : 1h 42mn
Overall bit rate : 898 Kbps
Encoded date : UTC 2010-09-19 13:27:57
Writing application : mkvmerge v4.2.0 ('No Talking') built on Jul 28 2010 18:38:23
Writing library : libebml v1.0.0 + libmatroska v1.0.0
Video
ID : 1
Format : MPEG-4 Visual
Format profile : [email protected]
Format settings, BVOP : Yes
Format settings, QPel : No
Format settings, GMC : No warppoints
Format settings, Matrix : Default (H.263)
Codec ID : XVID
Codec ID/Hint : XviD
Duration : 1h 42mn
Bit rate : 816 Kbps
Width : 640 pixels
Height : 272 pixels
Display aspect ratio : 2.35:1
Frame rate : 25.000 fps
Resolution : 24 bits
Colorimetry : 4:2:0
Scan type : Progressive
Bits/(Pixel*Frame) : 0.187
Stream size : 598 MiB (91%)
Writing library : XviD 57
Audio
ID : 2
Format : MPEG Audio
Format version : Version 2
Format profile : Layer 3
Codec ID : A_MPEG/L3
Codec ID/Hint : MP3
Duration : 1h 42mn
Bit rate mode : Constant
Bit rate : 64.0 Kbps
Channel(s) : 2 channels
Sampling rate : 22.05 KHz
Resolution : 16 bits
Stream size : 46.9 MiB (7%)
Writing library : LAME3.98.2
Language : Hindi
[/font][/color]

http://img831.imageshack.us/img831/6350/000290480.jpg

http://img684.imageshack.us/img684/5526/001773920.jpg

http://img843.imageshack.us/img843/6030/003315960.jpg

http://img808.imageshack.us/img808/9112/005224160.jpg

http://img227.imageshack.us/img227/7442/03140320.jpg

http://img194.imageshack.us/img194/5643/002182360.jpg

http://img530.imageshack.us/img530/4317/000267280.jpg


Related torrents

Torrent NameAddedSizeSeedLeechHealth
5 months ago - in Movies3.32 GB00
1 Year+ - in Movies695.53 MB00
1 Year+ - in Movies1.96 GB00
1 Year+ - in Other2.65 GB00
1 Year+ - in Movies1.74 GB11

Comments (0 Comments)




Please login or create a FREE account to post comments

Latest Searches

| wankz eva notty | the perfect happiness | borro cassette maluma l | Private Silvia Dellai | Promo Radio Country 2016 | ice cube roll cube | Sunny Sunny Yaariyan Feat Yo Yo Honey Singh Video Song Himansh Kohli Rakul Preet | I fucked santa | super young uncensored | meek mill do 4 |