Quick Browse
Movies
TV shows
Music
Games
Applications
Anime
Other
Facebook
Advertising

Friends
Torrent Download
Movie4u
1337x.to
Torrent Downloads




Kung Fu Master 2010 DVDRiP AC3 XViD -Trance


    Seeders : 0      Leechers : 2
Hash :29024CC9211F0C14A2F6C025E63CB69476A4D851
Added :1 Year+ by trance1Verified torrent uploader in Movies
Size :1.38 GB
Stream :WATCH ONLINE @ Movie4u


Kung Fu Master 2010 DVDRiP AC3 XViD -Trance
Free and Fast Download with Usenet 300GB+ free







Trackers List

Tracker NameLast CheckStatusSeedersLeechers




Torrent File Content (2 files)


Kung Fu Master 2010 DVDRiP AC3 XViD -Trance
     Kung Fu Master DVDRiP AC3 XViD-Trance.avi -
1.36 GB

     Kung Fu Master DVDRiP AC3 XViD-Trance (2).avi -
17.32 MB



Description



Kung Fu Master 2010 DVDRiP AC3  XViD -Trance

KUNG FU MASTER 2010 DVDRIP TRANCE




Video Codec.......: XVID
Release Date......:05/10/10
Audio Codec.......:AC3
Audio Bitrate.....:448
Runtime.......:1h 35mn
Subtitles.........:NIL
Language..........:ENGLISH
Resolution...... 720 x 480

Video

Format : MPEG-4 Visual
Codec ID : XVID
Duration : 1h 35mn
Bit rate : 1 598 Kbps
Width : 720 pixels
Height : 400 pixels
Display aspect ratio : 16:9
Frame rate : 23.976 fps
Chroma subsampling : 4:2:0
Bit depth : 8 bits
Scan type : Progressive
Stream size : 1.06 GiB

Audio
Format : AC-3
Format/Info : Audio Coding 3
Codec ID : 2000
Duration : 1h 35mn
Bit rate mode : Constant
Bit rate : 448 Kbps
Channel(s) : 6 channels
Sampling rate : 48.0 KHz
Bit depth : 16 bits
Stream size : 305 MiB (22%)
Interleave, duration : 42 ms (1.00 video frame)
Interleave, preload duration : 512 ms




Related torrents

Torrent NameAddedSizeSeedLeechHealth
1 Year+ - in Movies1.38 GB160155
1 Year+ - in Movies1.38 GB348
1 Year+ - in Movies1.38 GB37463
1 Year+ - in Movies1.47 GB9141
1 Year+ - in Movies1.66 GB60

Comments (0 Comments)




Please login or create a FREE account to post comments

Latest Searches

| Bears 2014 1080p x265 | 38 babe | Justin Bieber baby | JacquieEtMichelTV Juliana | november harlequin presents 2016 | believe acoustic version | bates guide to physical examination | Code Black S02E09 HDTV x264 LOL | sex romance split scenes | dogma 1999 bluray |