Quick Browse
Movies
TV shows
Music
Games
Applications
Anime
Other
Facebook
Advertising

Friends
Torrent Download
Movie4u
1337x.to
Torrent Downloads




Verified torrent Kung Fu Panda 2 2011 TS AC3 XViD-EP1C


    Seeders : 144      Leechers : 43
Hash :668B68DABE982FD4F76576F72E3D164A7D039453
Added :1 Year+ by memory100Verified torrent uploader in Movies
Size :1.4 GB
Stream :WATCH ONLINE @ Movie4u


Kung Fu Panda 2 2011 TS AC3 XViD-EP1C
Free and Fast Download with Usenet 300GB+ free







Trackers List

Tracker NameLast CheckStatusSeedersLeechers




Torrent File Content (8 files)


Kung.Fu.Panda.2.2011.TS.AC3.XViD-EP1C
     Budget seedboxs.txt -
44 bytes

     Kung.Fu.Panda.2.2011.TS.AC3.XViD-EP1C.avi -
1.37 GB

     Kung.Fu.Panda.2.2011.TS.AC3.XViD-EP1C.nfo -
3.78 KB

     NW RG.nfo -
12.96 KB

     Sample.avi -
27.16 MB

     dreamthe.net.txt -
91 bytes

     northernwarriors.net.txt -
135 bytes

     sceneunderground.org.txt -
77 bytes



Description



http://img694.imageshack.us/img694/1756/kungz.jpg

[code]
::File:: Kung.Fu.Panda.2.2011.TS.AC3.XViD-EP1C
::Video Source:: That Russian Good Good
::Audio Source:: Our Own Good Good

::Encoder::::::: iNK
::Syncer:::::::: iNK
::Language:::::: English
::IMDB:::::::::: http://www.imdb.com/title/tt1302011/

Po joins forces with a group of new kung-fu masters to take on an old enemy with a deadly new weapon.
::Specs:::::::::

Format : AVI
Format/Info : Audio Video Interleave
File size : 1.37 GiB
Duration : 1h 20mn
Overall bit rate : 2 421 Kbps
Writing application : VirtualDubMod 1.5.10.2 (build 2540/release)
Writing library : VirtualDubMod build 2540/release

Video
ID : 0
Format : MPEG-4 Visual
Format profile : Advanced [email protected]
Format settings, BVOP : Yes
Format settings, QPel : No
Format settings, GMC : No warppoints
Format settings, Matrix : Default (H.263)
Muxing mode : Packed bitstream
Codec ID : XVID
Codec ID/Hint : XviD
Duration : 1h 20mn
Bit rate : 2 220 Kbps
Width : 672 pixels
Height : 352 pixels
Display aspect ratio : 1.909
Frame rate : 25.000 fps
Color space : YUV
Chroma subsampling : 4:2:0
Bit depth : 8 bits
Scan type : Progressive
Bits/(Pixel*Frame) : 0.375
Stream size : 1.26 GiB (92%)
Writing library : XviD 58

Audio
ID : 1
Format : AC-3
Format/Info : Audio Coding 3
Mode extension : CM (complete main)
Codec ID : 2000
Duration : 1h 20mn
Bit rate mode : Constant
Bit rate : 192 Kbps
Channel(s) : 2 channels
Channel positions : Front: L R
Sampling rate : 48.0 KHz
Bit depth : 16 bits
Stream size : 111 MiB (8%)
Alignment : Split accross interleaves
Interleave, duration : 40 ms (1.00 video frame)
Interleave, preload duration : 500 ms


::NOTES:::::::::

Presenting the first TeleSync of Kung Fu Panda 2. Ran a few things through to clean it up. This will do until something better. Also, comes with our own LiNE, in full stereo. Enjoy. //iNK
[/code]
Screens:
http://img703.imageshack.us/img703/7525/50455492.png

http://img155.imageshack.us/img155/2585/98303386.png

http://img638.imageshack.us/img638/1997/73476712.png

http://img825.imageshack.us/img825/5213/32865991.png

http://img834.imageshack.us/img834/9103/22242302.png

Related torrents

Torrent NameAddedSizeSeedLeechHealth
1 Year+ - in Movies1.4 GB00
1 Year+ - in Movies1.4 GB00
1 Year+ - in Movies1.4 GB02
1 Year+ - in Movies1.39 GB00
1 Year+ - in Movies1.39 GB00

Comments (2 Comments)




queenclover
» Downloaded this torrent Downloaded this torrent » Voted Bad Voted Bad for this torrent for this torrent

Added 1 Year+
cam
zeyneb
» Downloaded this torrent Downloaded this torrent » Voted Good Voted Good for this torrent for this torrent

Added 1 Year+
thx
Please login or create a FREE account to post comments

Latest Searches

| big bang theory season 9 720p reenc | NEW WORLD LIVE | Gangland Season 1 Complete | phineas ferb s04 720p | EvilAngel Anikka Albrite Blair Williams Lily Jordan | big bang theory season 9 720p maximersk | Sky Blue Love | skin diseases pdf | avatar legend of korra season 1 hd | EvilAngel Anikka Albrite Blair Williams Lily Jordan |