Quick Browse
Movies
TV shows
Music
Games
Applications
Anime
Other
Facebook
Advertising

Friends
Torrent Download
Movie4u
1337x.to
Torrent Downloads




La.Casa.Sulle.Nuvole.2009.iTALiAN.DVDRip.XviD-MvN.[ultimafrontiera]


    Seeders : 21      Leechers : 12

Trackers List

Tracker NameLast CheckStatusSeedersLeechers




Torrent File Content (1 file)


     La.Casa.Sulle.Nuvole.2009.iTALiAN.DVDRip.XviD-MvN.avi -
699.79 MB



Description



http://i35.tinypic.com/23vevc8.jpg


http://i34.tinypic.com/2rxu04p.jpg


http://i36.tinypic.com/2wlzn9f.jpg


Titolo originale: La casa sulle nuvole
Nazione: Italia
Anno: 2008
Genere: Drammatico
Durata: 96 minuti
Regia: Claudio Giovannesi
Produzione: Centro Sperimentale di Cinematografia, Rai Cinema, Shooting Stars



http://i34.tinypic.com/301n9ec.jpg


[color=#00FF00]Adriano Giannini, Emanuele Bosi, Emilio Bonucci, Paolo Sassanelli, Manuela Spartà, Tara Haggiag[/color]

http://i33.tinypic.com/2ldeeyr.jpg


[color=orange]Due fratelli, Michele e Lorenzo, non sono mai andati troppo d'accordo, anzi, il loro rapporto é sempre stato particolarmente burrascoso.

Ora si trovano nella necessità di partire insieme per il Marocco, alla ricerca del padre sparito diversi anni prima; se non lo troveranno rischiano di

perdere la loro casa. Con molta sorpresa, per i due ragazzi, il viaggio si rivela un'opportunità unica per rinsaldare il loro rapporto e per fargli

raggiungere quella complicità mai provata prima...
[/color]

http://i38.tinypic.com/2ihuvd2.jpg


[color=red][b] Due fratelli, Michele e Lorenzo, riportati alla realtà da un evento improvviso partono alla volta del Marocco per cercare il padre fuggito

undici anni prima. Opera prima di Claudio Giovannesi, La casa sulle nuvole si colloca in maniera evidente nel filone della letteratura e del cinema di

viaggio, inteso come doppio percorso parallelo, nello spazio e nella mente, per la ricerca e la comprensione di sé e del mondo che ci circonda. Si capisce

ben presto che "La casa sotto le nuvole" non ha l'ambizione di essere innovativo a tutti i costi o di sperimentare nuovi linguaggi, magari a scapito della

pazienza degli spettatori (come purtroppo spesso accade). Claudio Giovannesi, in tutta onestà, vuole raccontare una storia, basata sul rapporto tra padri e

figli, sul distacco e la lontananza, sul perdersi e sul ritrovarsi, secondo il ritmo di quelle esperienze che sono patrimonio comune di tutti gli esseri

umani.
I due fratelli sono interpretati da Adriano Giannini (il maggiore) ed Emanuele Bosi (il minore). E' davvero rinfrescante vedere due attori italiani che si

mettono al servizio dei rispettivi ruoli con sensibilità e umiltà, senza avere smania di primeggiare, senza strafare e permettendo ai loro personaggi delle

minuscole trasformazioni, quasi impercettibili. In questo modo il percorso interiore di Michele e Lorenzo passa quasi sotto pelle, il cammino di vita dei

due fratelli traspare appena lungo i risvolti delle loro indoli, così diverse eppure così affascinanti. Il secondo protagonista di questa pellicola è

senz'altro il Marocco, già noto peraltro nella sua declinazione itinerante nel film di Salvatores Marrakech express, qui evocato in una breve scena di gioco

nel deserto in cui al pallone viene sostituito il frisbee. Così viene nuovamente esplorato il rapporto tra oriente e occidente, anch'esso tipicamente

ottocentesco come il tema del viaggio, presentato in forma di contrasto senza possibilità di risoluzione.
La casa sotto le nuvole è dunque una pellicola che lascia ben sperare sulle doti di questo regista esordiente. La sequenza della mongolfiera, che si leva da

dietro una duna per poi scomparire "idealmente" sopra la testa degli spettatori è di grande bellezza e di grande forza immaginativa.

La frase: "...e tu stai lì a mangiare come se fosse il pranzo di Natale!".
Mauro Corso



http://i34.tinypic.com/1z1495e.jpg


[code]Format : AVI
Format/Info : Audio Video Interleave
File size : 700 MiB
Duration : 1h 36mn
Overall bit rate : 1 012 Kbps
Writing application : VirtualDubMod 1.5.10.2 (build 2540/release)
Writing library : VirtualDubMod build 2540/release

Video
ID : 0
Format : MPEG-4 Visual
Format profile : [email protected]
Format settings, BVOP : Yes
Format settings, QPel : No
Format settings, GMC : No warppoints
Format settings, Matrix : Default (MPEG)
Codec ID : XVID
Codec ID/Hint : XviD
Duration : 1h 36mn
Bit rate : 872 Kbps
Width : 592 pixels
Height : 320 pixels
Display aspect ratio : 1.850
Frame rate : 25.000 fps
Resolution : 24 bits
Colorimetry : 4:2:0
Scan type : Progressive
Bits/(Pixel*Frame) : 0.184
Stream size : 603 MiB (86%)
Writing library : XviD 1.2.1 (UTC 2008-12-04)

Audio
ID : 1
Format : MPEG Audio
Format version : Version 1
Format profile : Layer 3
Codec ID : 55
Codec ID/Hint : MP3
Duration : 1h 36mn
Bit rate mode : Variable
Bit rate : 127 Kbps
Nominal bit rate : 128 Kbps
Channel(s) : 2 channels
Sampling rate : 48.0 KHz
Resolution : 16 bits
Stream size : 87.6 MiB (13%)
Alignment : Aligned on interleaves
Interleave, duration : 24 ms (0.60 video frame) [/code]


http://i38.tinypic.com/34hbbjr.jpg


http://www.youtube.com/watch?v=mB6LNfU2XtE

Related torrents

Torrent NameAddedSizeSeedLeechHealth
1 Year+ - in Movies699.79 MB11
1 Year+ - in Movies3.64 GB169
1 Year+ - in Movies699.77 MB1626
1 Year+ - in Movies699.91 MB76171
1 Year+ - in Movies699.95 MB1011

Comments (0 Comments)




Please login or create a FREE account to post comments

Latest Searches

| Dark souls iii edition | mob psycho 100 | X Men Apocalypse blueray | Blacked Petite Blonde Shawna Lenee Screams On Huge Black | dr strange extended | Michelle Sagara cast in | mob psycho 100 english | House Boat Full Of s | verdi la donna e mobile | Wide Awake Original Mix Tom Staar Still Young |