Quick Browse
Movies
TV shows
Music
Games
Applications
Anime
Other
Facebook
Advertising

Friends
Torrent Download
Movie4u
1337x.to
Torrent Downloads




La.Custode.Di.Mia.Sorella.2009.iTALiAN.MD.WP.SCR.XViD-FREE.[ultimafrontiera]


    Seeders : 1      Leechers : 0

Trackers List

Tracker NameLast CheckStatusSeedersLeechers




Torrent File Content (1 file)


     La.Custode.Di.Mia.Sorella.2009.iTALiAN.MD.WP.SCR.XViD-FREE.avi -
681.08 MB



Description



http://i35.tinypic.com/23vevc8.jpg


http://i32.tinypic.com/2ir3cli.jpg


http://i36.tinypic.com/2wlzn9f.jpg


Titolo originale: My Sister's Keeper
Nazione: U.S.A.
Anno: 2009
Genere: Drammatico
Durata: 109
Regia: Nick Cassavetes
Produzione: Curmudgeon Films, Gran Via Productions, Mark Johnson Productions



http://i34.tinypic.com/301n9ec.jpg


[color=#00FF00]Cameron Diaz, Alec Baldwin, Abigail Breslin, Joan Cusack, Jason Patric, Heather Wahlquist, Nicole Marie Lenz, Thomas Dekker, Sofia Vassilieva, Elizabeth Daily, Evan Ellingson[/color]

http://i33.tinypic.com/2ldeeyr.jpg


[font=Verdana][color=orange][b]Anna, una ragazzina di tredici anni, é convinta che i suoi genitori l'abbiano concepita con l'unico scopo di avere una donatrice sana e compatibile per sua sorella malata di leucemia. Dopo aver adempiuto alle numerose richieste per la donazione di cellule staminali, sangue e midollo osseo, Anna, alla richiesta di donare un rene, inaspettatamente porta i suoi genitori in tribunale...[/color][/font]

http://i38.tinypic.com/2ihuvd2.jpg


[font=Verdana][color=red] Nick Cassavetes propone, stavolta in veste sia di regista che di sceneggiatore, la trasposizione cinematografica dell’omonimo romanzo di Jodi Picoult, che ha riscosso un grande successo in America ed è appena stato editato in Italia.
Kate Fitzgerald (Sofia Vassilieva) ha quindici anni e combatte da oltre dieci contro una rara forma di leucemia. I genitori (Cameron Diaz e Jason Patric), al manifestarsi della malattia, decidono di avere un altro bambino manipolando geneticamente il suo dna, affinché diventi un donatore compatibile per Kate. Arrivata agli undici anni, la piccola Anna (Abigail Breslin) non vuole più sottoporsi a operazioni e continui prelievi per aiutare la sorella, quindi decide di far causa ai genitori rivendicando i diritti sul proprio corpo. Il dibattito in aula ha inizio e il giudice ascolta tutte le parti cercando di andare a fondo nella questione.
Il film sembra essere dapprima incentrato su una tematica prettamente etica: come possono dei genitori decidere di avere un figlio solo perché sia donatore di organi per un altro? Ma questa impostazione è abbandonata sin da subito: a Cassavetes non interessa riflettere sui risvolti etici dell’ingegneria genetica, sebbene semini qui e lì qualche spunto di riflessione, vuole soprattutto indagare le dinamiche che si innescano in una famiglia colpita dalla malattia.
Presente e passato si mescolano: una serie di flashback racconta il decorso della malattia di Kate, le avversità affrontate dai Fitzgerald, la determinazione di Sara (la mamma) nell’assistere la figlia. Il punto di vista non si focalizza su un solo personaggio, a turno le voci fuori campo dei protagonisti raccontano come hanno vissuto la vicenda e i sentimenti provati, che non sono solo di amore e totale abnegazione verso la ragazza.
La regia asciutta di Cassavetes si sofferma per lo più sui personaggi e sul forte rapporto che li unisce, non indulge su artefatti sentimentalismi, riuscendo comunque a essere toccante. I componenti della famiglia Fitzgerald sono in bilico tra il dovere e i loro sogni, tra le necessità di Kate e il desiderio di ritagliarsi un proprio spazio nella tragica quotidianità che li circonda, loro come pure l’avvocato di Anna (un simpatico, sebbene imbolsito Alec Baldwin) e il giudice Di Salvo (Joan Cusack) sono intensi, caratterizzati in maniera approfondita e forse più vicini alla realtà rispetto a tanti altri visti in film di questo tipo.
In generale tutto il cast da una buona prova di sé, su tutti spiccano la piccola Abigail Breslin, che già si è distinta in diverse importanti produzioni e sfoggia una recitazione naturale e convincente e Sofia Vassilieva. Anche Joan Cusack, eternamente relegata in ruoli secondari di commedie romantiche, in questo film offre un’ottima prova attoriale in una parte drammatica. Camenron Diaz risulta meno credibile nel ruolo di "mamma coraggio", ma forse l’occhio, abituato a vederla in scatenate commedie, potrebbe essere influenzato dal pregiudizio…

La frase: "Io non la lascerò morire, tu lo sai, vero?".
Ilaria Ferri

[/color][/font]


http://i34.tinypic.com/1z1495e.jpg


[code]Format : AVI
Format/Info : Audio Video Interleave
File size : 698 MiB
Duration : 1h 44mn
Overall bit rate : 933 Kbps
Writing application : VirtualDubMod 1.5.10.2 (build 2542/release)
Writing library : VirtualDubMod build 2542/release

Video
ID : 0
Format : MPEG-4 Visual
Format profile : [email protected]
Format settings, BVOP : No
Format settings, QPel : No
Format settings, GMC : No warppoints
Format settings, Matrix : Default (H.263)
Codec ID : XVID
Codec ID/Hint : XviD
Duration : 1h 44mn
Bit rate : 799 Kbps
Width : 576 pixels
Height : 224 pixels
Display aspect ratio : 2.571
Frame rate : 23.976 fps
Resolution : 24 bits
Colorimetry : 4:2:0
Scan type : Progressive
Bits/(Pixel*Frame) : 0.258
Stream size : 598 MiB (86%)
Writing library : XviD 1.2.1 (UTC 2008-12-04)

Audio
ID : 1
Format : MPEG Audio
Format version : Version 1
Format profile : Layer 3
Codec ID : 55
Codec ID/Hint : MP3
Duration : 1h 44mn
Bit rate mode : Variable
Bit rate : 121 Kbps
Nominal bit rate : 128 Kbps
Channel(s) : 2 channels
Sampling rate : 48.0 KHz
Resolution : 16 bits
Stream size : 90.3 MiB (13%)
Alignment : Aligned on interleaves
Interleave, duration : 24 ms (0.58 video frame)[/code]


http://i38.tinypic.com/34hbbjr.jpg


http://www.youtube.com/watch?v=LeNBynRfakk

[color=#ff0000][size=20pt]
Qualità audio 6
Qualità video 6[/size][/color]

Related torrents

Torrent NameAddedSizeSeedLeechHealth
1 Year+ - in Movies690.27 MB10
1 Year+ - in Movies691.72 MB8430
1 Year+ - in Movies691.72 MB53104
1 Year+ - in Movies691.72 MB167149
1 Year+ - in Movies690.27 MB00

Comments (0 Comments)




Please login or create a FREE account to post comments

Latest Searches

| neverending story flac | modern piano course | soldier force | rre 04 | For Whom the Bell Tolls AMIABLE | touch s01e12 hdtv x264 lol vtv mp4 | Alicia Jolie | the walking dead season hdtv 6 | capri 1080p | 2160p twins |