Quick Browse
Movies
TV shows
Music
Games
Applications
Anime
Other
Facebook
Advertising

Friends
Torrent Download
Movie4u
1337x.to
Torrent Downloads




Verified torrent La presa di Roma 20 Settembre 1870 (Filoteo Alberini 1905) [Divx Mp3 Ita] [TNTvillage]


    Seeders : 35      Leechers : 3

Trackers List

Tracker NameLast CheckStatusSeedersLeechers




Torrent File Content (1 file)


     La presa di Roma 20 Settembre 1870 (Filoteo Alberini 1905).avi -
52.96 MB



Description



La presa di Roma 20 Settembre 1870 (Filoteo Alberini 1905) [Divx Mp3 Ita] [TNTvillage]

LA PRESA DI ROMA
20 SETTEMBRE 1870


Filoteo Alberini



http://img194.imageshack.us/img194/3065/roma1p.png




http://img813.imageshack.us/img813/2219/schedafilm.jpg


Lingua originale: Italiano
Paese: Italia
Anno: 1905
Durata: 10 min. circa (di cui restano 4 min.)
Colore: B/N (ultimo quadro colorato)
Audio: muto
Genere: storico
Regia: Filoteo Alberini
Casa di produzione: Alberini & Santoni
Scenografia: Augusto Cicognani



http://img830.imageshack.us/img830/179/castg.jpg


Ubaldo Maria Del Colle
Carlo Rosaspina



http://img824.imageshack.us/img824/7169/noted.jpg


La presa di Roma, anche conosciuto come Bandiera bianca e La Breccia di Porta Pia, è un cortometraggio di Filoteo Alberini, prima pellicola proiettata pubblicamente in Italia, il 20 settembre 1905, nell'anniversario della presa di Roma.
Lungo 250 metri (una decina di minuti), contro i 40/60 tradizionali, costò ben 500 lire, oggi se ne conservano solamente 75 metri di pellicola, ovvero quattro minuti di proiezione. Per la presentazione ufficiale, Filoteo Alberini ottiene l'autorizzazione a effettuare la proiezione all'aperto su un grosso schermo piazzato proprio dinanzi a Porta Pia. Vi assistono migliaia di persone richiamate da una breve, ma intensa campagna pubblicitaria effettuata mediante la diffusione di volantini.
Come indicato nel bollettino della Alberini & Santoni, La presa di Roma è una "grande ricostruzione storica in sette quadri", di cui l'ultimo a colori, dell'assalto di Porta Pia condotto dai bersaglieri italiani dopo i vani tentativi di mediazione con le truppe pontificie. Alberini sviluppa l'idea di fondo dividendola in una serie di quadri, ognuno costituente una unità narrativa autonoma, che in virtù del montaggio ricostruiscono fatti e personaggi della storia italiana recente.
A tal fine, egli coinvolge Augusto Cicognani nella realizzazione delle scenografie di cartapesta utilizzate per i tre quadri ripresi in teatro di posa che si alternano a quelli girati in esterni dal vero che conferiscono un'inedita autenticità alle scene di massa. In definitiva La presa di Roma unisce il realismo della ricostruzione storica alla spettacolarità delle scene aprendo la strada, dal punto di vista sia formale che tematico, ai kolossal degli anni successivi in cui eccelle l'industria cinematografica italiana.

Nel 2005 per i cent'anni della pellicola, il film è stato ricostruito e restaurato dal Centro Sperimentale di Cinematografia della Cineteca Nazionale grazie ai duplicati negativi degli anni '30 dell'Istituto Luce comparati con le copie dei fotogrammi della Cineteca Nazionale di Roma, della Cineteca Italiana di Milano, del MOMA di New York e del National Film and Television Archive di Londra. L'ultimo fotogramma è stato fornito da Aldo Bernardini, storico collaboratore di Vittorio Martinelli sulla storia del cinema muto.



http://img6.imageshack.us/img6/5707/screenip.jpg


http://img225.imageshack.us/img225/6779/roma2.png


http://img38.imageshack.us/img38/8830/roma3g.png


http://img716.imageshack.us/img716/3404/roma4.png




http://img825.imageshack.us/img825/678/schedatecnica.jpg


General
Complete name : La presa di Roma 20 Settembre 1870 (Filoteo Alberini 1905).avi
Format : DivX
Format/Info : Hack of AVI
File size : 53.0 MiB
Duration : 5mn 59s
Overall bit rate : 1 235 Kbps

Video
ID : 0
Format : MPEG-4 Visual
Format settings, BVOP : Yes
Format settings, QPel : No
Format settings, GMC : No warppoints
Format settings, Matrix : Default (H.263)
Muxing mode : Packed bitstream
Codec ID : DX50
Codec ID/Hint : DivX 5
Duration : 5mn 59s
Bit rate : 1 098 Kbps
Width : 704 pixels
Height : 544 pixels
Display aspect ratio : 1.294
Frame rate : 25.000 fps
Resolution : 8 bits
Colorimetry : 4:2:0
Scan type : Progressive
Bits/(Pixel*Frame) : 0.115
Stream size : 47.1 MiB (89%)
Title : Main
Writing library : DivX 6.7.0 (UTC 2007-09-20)

Audio
ID : 1
Format : MPEG Audio
Format version : Version 1
Format profile : Layer 3
Format_Settings_Mode : Joint stereo / MS Stereo
Codec ID : 55
Codec ID/Hint : MP3
Duration : 5mn 59s
Bit rate mode : Constant
Bit rate : 128 Kbps
Channel(s) : 2 channels
Sampling rate : 44.1 KHz
Stream size : 5.49 MiB (10%)
Alignment : Split accross interleaves
Interleave, duration : 40 ms (1.00 video frame)
Interleave, preload duration : 500 ms
Title : Audio

Visit http://www.tntvillage.scambioetico.org/

Related torrents

Torrent NameAddedSizeSeedLeechHealth
Verified torrent
1 Year+ - in Other34.33 MB00
Verified torrent
1 Year+ - in Other36.85 MB40
Verified torrent
1 Year+ - in Other32.76 MB294
Verified torrent
1 Year+ - in Other32.64 MB1313
Verified torrent
1 Year+ - in Other66.58 MB429

Comments (0 Comments)




Please login or create a FREE account to post comments

Latest Searches

| riggio | future feat drake | AussieAss ryan | bang bang ariana jessie j | Latins Finest Male Strippers Rookies | drunk in love kanye west remix | Unbreakable A Shadow Falls After Dark Novella | r the album | the dark knight uncut | InterracialPickups Rilynn Rae |