Quick Browse
Movies
TV shows
Music
Games
Applications
Anime
Other
Facebook
Advertising

Friends
Torrent Download
Movie4u
1337x.to
Torrent Downloads




Lake Placid 3 2010 HDTVRiP XViD~Striker~TheDesiAdda.Com


    Seeders : 0      Leechers : 0
Hash :93CBF3BC68F3EAFCF5E7DBF77067C823D2E639C0
Added :1 Year+ by striker123Verified torrent uploader in Movies
Size :700.7 MB
Stream :WATCH ONLINE @ Movie4u


Lake Placid 3 2010 HDTVRiP XViD~Striker~TheDesiAdda.Com
Free and Fast Download with Usenet 300GB+ free







Trackers List

Tracker NameLast CheckStatusSeedersLeechers




Torrent File Content (4 files)


Lake Placid 3 2010 HDTVRiP XViD~Striker~TDA
     Lake Placid 3 2010 HDTV XviD~Striker~TDA.avi -
700.04 MB

     TeamTDA.jpg -
681.47 KB

     More Movies.url -
112 bytes

     Tracked By DesiAdda.com.txt -
23 bytes



Description



http://i55.tinypic.com/149ccnr.jpg


http://www.image.videorockers.in/hosted/90fd1472acca77fa1ca3fd9bf9c23760.jpg


http://i51.tinypic.com/n13txv.png

[CODE]
General

Format : AVI
Format/Info : Audio Video Interleave
File size : 700 MiB
Duration : 1h 27mn
Overall bit rate : 1 118 Kbps
Writing application : Nandub v1.0rc2
Writing library : Nandub build 1853/release

Video
ID : 0
Format : MPEG-4 Visual
Format profile : [email protected]
Format settings, BVOP : Yes
Format settings, QPel : No
Format settings, GMC : No warppoints
Format settings, Matrix : Default (H.263)
Codec ID : XVID
Codec ID/Hint : XviD
Duration : 1h 27mn
Bit rate : 973 Kbps
Width : 624 pixels
Height : 352 pixels
Display aspect ratio : 16:9
Frame rate : 23.976 fps
Resolution : 24 bits
Colorimetry : 4:2:0
Scan type : Progressive
Bits/(Pixel*Frame) : 0.185
Stream size : 609 MiB (87%)
Writing library : XviD 1.2.1 (UTC 2008-12-04)

Audio
ID : 1
Format : MPEG Audio
Format version : Version 1
Format profile : Layer 3
Codec ID : 55
Codec ID/Hint : MP3
Duration : 1h 27mn
Bit rate mode : Variable
Bit rate : 133 Kbps
Nominal bit rate : 128 Kbps
Channel(s) : 2 channels
Sampling rate : 48.0 KHz
Resolution : 16 bits
Stream size : 83.3 MiB (12%)
Alignment : Aligned on interleaves
Interleave, duration : 24 ms (0.58 video frame)
Interleave, preload duration : 132 ms
Writing library : LAME3.90.
Encoding settings : -m j -V 4 -q 2 -lowpass 17.6 --abr 128


[/CODE]

http://i51.tinypic.com/2cgga6v.png


http://i53.tinypic.com/2nkmekz.jpg


http://i55.tinypic.com/2dah9bk.png


Related torrents

Torrent NameAddedSizeSeedLeechHealth
1 Year+ - in TV shows700.27 MB00
1 Year+ - in TV shows372.58 MB01
1 Year+ - in Movies139.48 MB43
1 Year+ - in Movies691.74 MB10
1 Year+ - in Movies692.98 MB10

Comments (0 Comments)




Please login or create a FREE account to post comments

Latest Searches

| teenage mutant 2016 en 1080p | Beginner Levels | Sara Jay Loves To Fuck Girl On Girl 2 | lit plex | want you back the Jackson 5 | Paul Kalkbrenner | dance big sean remix | wearmouth sinclair | Supergirl S02E01 720p HDTV x265 HEVC ShAaNiG | beer party |