Quick Browse
Movies
TV shows
Music
Games
Applications
Anime
Other
Facebook
Advertising

Friends
Torrent Download
Movie4u
1337x.to
Torrent Downloads




Verified torrent Lara Croft Cradle of Life 2003 BRrip Hindi~3385VKSH


    Seeders : 59      Leechers : 153
Hash :5BDB7D5243EB49BDE8F78A5F2DC6237135BC5ED9
Added :1 Year+ by VKS3385Verified torrent uploader in Movies
Size :1.28 GB
Stream :WATCH ONLINE @ Movie4u


Lara Croft Cradle of Life 2003 BRrip Hindi~3385VKSH
Free and Fast Download with Usenet 300GB+ free







Trackers List

Tracker NameLast CheckStatusSeedersLeechers




Torrent File Content (3 files)


Lara Croft Cradle of Life 2003 BRrip Hindi
     2003_the_cradle_of_life_wallpaper_007.jpg -
262.56 KB

     Join Us...!!!!.txt -
260 bytes

     Lara Croft Cradle of Life 2003 BRrip Hindi.mkv -
1.28 GB



Description



http://img340.imageshack.us/img340/1050/hddesirockers.png

http://img62.imageshack.us/img62/5382/roadsignphp.png


http://img829.imageshack.us/img829/5344/1xxd9k.png


http://img836.imageshack.us/img836/3343/25ic0hd1.png


http://img844.imageshack.us/img844/7802/2003thecradleoflifewall.jpg


http://img251.imageshack.us/img251/2970/3e991c4fa97433e5fd69fc8.jpg



Lara Croft is tasked by MI6 to find Pandora's Box, an object from ancient legends which supposedly contains one of the deadliest plagues on Earth, before evil Nobel Prize-winning scientist turned bioterrorist Jonathan Reiss can get his hands on it. The key to finding the box, which is hidden in the mysterious Cradle of Life, is a magical luminous orb that serves as a map. Lara finds the orb while exploring the submerged Luna Temple following an earthquake off the coast of Santorini, but it is stolen by crime lord Chen Lo, who in turn plans to sell the orb to Reiss. Lara recruits an old lover, Terry Sheridan, a former mercenary and Royal Marine who had spent his last couple of years in prison in Kazakhstan, to help her track down Chen Lo and the orb.Among the action sequences that take place during this time are the duo's entry into mainland China, a fight scene in suburban Shanghai, and a leap off the then-under-construction International Finance Centre skyscraper in Hong Kong, landing on a ship out in the Kowloon Bay. The orb later reveals the location of the Cradle of Life to be somewhere near Kilimanjaro in Africa. Lara sends this info back to Bryce back at Croft Manor. After the transmission, Reiss and his men had infiltrated the mansion and captured Bryce and Hillary. Meanwhile, Lara and Terry begin to fall in love with each other again but Lara starts to back
away from him.Lara meets up with Kosa, an African friend who serves as her translator as they obtain information from a local tribe about the Cradle of Life. As the expedition starts, many of the tribesmen are soon killed by Reiss' soldiers and ends with Lara being captured as Reiss' helicopter starts to land. Reiss threatens to kill Bryce, Hillary, and Kosa unless Lara leads him to the Cradle of Life. Soon they face perils such as a forest full of shadow monsters that kill immediately when they sense movement. When it comes to entering the Cradle of Life, there is a pool of highly corrosive black acid which holds the box. During this time, Terry arrives, frees Reiss' captives, and catches up to Lara.Following a climactic fistfight between Lara and Reiss, Reiss is knocked into the acid pool by Lara after he is distracted by Terry. When the couple tries to leave, Terry attempts to take the box as compensation for finding it, but she staunchly refuses to let him leave with it. Despite her love for him, this results in Lara being forced to fatally shoot him in self-defense just after Terry draws his own gun. Lara places Pandora's Box back into the pool, and realizes that some things were not meant to be found.


http://img714.imageshack.us/img714/4783/9k1gty1.png


Angelina Jolie ... Lara Croft

Gerard Butler ... Terry Sheridan

CiarĂ¡n Hinds ... Jonathan Reiss

Chris Barrie ... Hillary (as Christopher Barrie)

Noah Taylor ... Bryce

Djimon Hounsou ... Kosa

Til Schweiger ... Sean

Simon Yam ... Chen Lo

Terence Yin ... Xien

Daniel Caltagirone ... Nicholas Petraki

Fabiano Martell ... Jimmy Petraki

Jonathan Coyne ... Gus Petraki

Robert Cavanah ... MI6 Agent Stevens

Ronan Vibert ... MI6 Agent Calloway

Lenny Juma ... Village Leader


http://i50.tinypic.com/zvbzx2.jpg


General
Complete name : Lara Croft Cradle of Life 2003 BRrip Hindi~3385VKSH
Format : Matroska
File size : 1.28 GiB
Duration : 1h 41mn
Overall bit rate : 1 809 Kbps
Encoded date : UTC 2010-08-19 07:52:25
Writing application : mkvmerge v4.2.0 ('No Talking') built on Jul 28 2010 18:38:23
Writing library : libebml v1.0.0 + libmatroska v1.0.0


http://img37.imageshack.us/img37/7218/vlcfile.png

Video
ID : 1
Format : AVC
Format/Info : Advanced Video Codec
Format profile : [email protected]
Format settings, CABAC : Yes
Format settings, ReFrames : 3 frames
Muxing mode : Container [email protected]
Codec ID : V_MPEG4/ISO/AVC
Duration : 1h 41mn
Bit rate : 1 517 Kbps
Width : 1 280 pixels
Height : 544 pixels
Display aspect ratio : 2.35:1
Frame rate : 25.000 fps
Original frame rate : 23.976 fps
Color space : YUV
Chroma subsampling : 4:2:0
Bit depth : 8 bits
Scan type : Progressive
Bits/(Pixel*Frame) : 0.087
Stream size : 1.07 GiB (84%)


http://img248.imageshack.us/img248/6613/musicfile1.png

Audio
ID : 2
Format : MPEG Audio
Format version : Version 1
Format profile : Layer 3
Mode : Joint stereo
Codec ID : A_MPEG/L3
Codec ID/Hint : MP3
Duration : 1h 41mn
Bit rate mode : Constant
Bit rate : 256 Kbps
Channel(s) : 2 channels
Sampling rate : 44.1 KHz
Video delay : 3s 900ms
Stream size : 185 MiB (14%)


http://i50.tinypic.com/2qtwdv8.jpg


http://img707.imageshack.us/img707/2381/kbv2yw2m.png


http://img822.imageshack.us/img822/594/tipv9q6s.png


http://img202.imageshack.us/img202/2732/zubfmzck.png


http://img535.imageshack.us/img535/6483/laracroftcradleoflife20.jpg


http://img835.imageshack.us/img835/6483/laracroftcradleoflife20.jpg


http://img843.imageshack.us/img843/6483/laracroftcradleoflife20.jpg


Sample
[URL]http://hotfile.com/dl/65777349/9dcd40c/Lara_Croft_Cradle_of_Life_2003_BRrip_Hindi_Sample.mkv.html[/URL]

http://i49.tinypic.com/zoap2a.jpg


http://img690.imageshack.us/img690/2538/2s9d1cg.gif

http://i49.tinypic.com/28v8wmr.jpg


http://img205.imageshack.us/img205/91/15880378.png

http://img695.imageshack.us/img695/7097/6sdez7.gif

Related torrents

Torrent NameAddedSizeSeedLeechHealth
1 Year+ - in Movies1.82 GB00
1 Year+ - in Movies317.93 MB01
10 months ago - in Movies1.48 GB00
1 Year+ - in Movies1.92 GB313
5 months ago - in Movies2.51 GB00

Comments (0 Comments)




Please login or create a FREE account to post comments

Latest Searches

| ultimate spider man vs the sinister 6 S04E06 | edyn blaire | The Detonator 2006 x264 1080p | The Detonator 2006 x264 720p | iphone 4 made simple | Blackstreetrb | Lily Lane Tattooed Sluts 3 Scene 2 | vtta | chris brown back to sleep f usher | John Tiller s HPS Civil War Battles Campaign Antietam |