Quick Browse
Movies
TV shows
Music
Games
Applications
Anime
Other
Facebook
Advertising

Friends
Torrent Download
Movie4u
1337x.to
Torrent Downloads




Verified torrent Le Paradis des betes [2012] DVDRiP XviD-DiAMOND


    Seeders : 1      Leechers : 0
Hash :C5F1DF13D9E9CCCC6F4A91B436B78A6196A1D3CC
Added :1 Year+ by L0LPLZVerified torrent uploader in Movies
Size :701.07 MB
Stream :WATCH ONLINE @ Movie4u


Le Paradis des betes [2012] DVDRiP XviD-DiAMOND
Free and Fast Download with Usenet 300GB+ free







Trackers List

Tracker NameLast CheckStatusSeedersLeechers




Torrent File Content (4 files)


Le Paradis des bêtes [2012] DVDRiP XviD-DiAMOND
     dmd-le.paradis.des.bêtes.rar -
701 MB

     dmd-le.paradis.des.bêtes.jpg -
70.23 KB

     dmd-le.paradis.des.bêtes.nfo -
4.53 KB

     LISEZ MOI - Important.txt -
1.78 KB



Description



Le Paradis des bêtes [2012] DVDRiP XviD-DiAMOND

http://www.imdb.com/title/tt2194607/

Date de sortie: 14 mars 2012 (1h 43min)
Réalisé par: Estelle Larrivaz
Avec: Stefano Cassetti, Géraldine Pailhas, Muriel Robin
Genre: Comédie dramatique
Nationalité: Français

Video
ID : 0
Format : MPEG-4 Visual
Format profile : Advanced [email protected]
Format settings, BVOP : 2
Format settings, QPel : No
Format settings, GMC : No warppoints
Format settings, Matrix : Default (H.263)
Muxing mode : Packed bitstream
Codec ID : XVID
Codec ID/Hint : XviD
Duration : 1h 43min
Bit rate : 2 645 Kbps
Width : 720 pixels
Height : 384 pixels
Display aspect ratio : 1.875
Frame rate : 25.000 fps
Color space : YUV
Chroma subsampling : 4:2:0
Bit depth : 8 bits
Scan type : Progressive
Compression mode : Lossy
Bits/(Pixel*Frame) : 0.383
Stream size : 1.45 GiB (95%)
Writing library : XviD 64

Audio
ID : 1
Format : MPEG Audio
Format version : Version 1
Format profile : Layer 3
Mode : Joint stereo
Mode extension : MS Stereo
Codec ID : 55
Codec ID/Hint : MP3
Duration : 1h 43min
Bit rate mode : Constant
Bit rate : 128 Kbps
Channel(s) : 2 channels
Sampling rate : 44.1 KHz
Compression mode : Lossy
Stream size : 71.9 MiB (5%)
Alignment : Split accross interleaves
Interleave, duration : 40 ms (1.00 video frame)


Recommandé pour tous nos films
http://www.videolan.org/vlc/

Salutations à Tout Ceux qui font leur possible pour soutenir le P2P Et La Scène ;)

Related torrents

Torrent NameAddedSizeSeedLeechHealth
1 Year+ - in Movies703.32 MB775260
1 Year+ - in Other607.76 MB10
1 Year+ - in Movies703.32 MB35
1 Year+ - in Movies710.15 MB1,0291,191
1 Year+ - in Movies977.63 MB10

Comments (0 Comments)




Please login or create a FREE account to post comments

Latest Searches

| mompov tied for oldest on | Neighbours 1 full movie | run grow | If I dont love you | outing2015 | further up the road bobby bland | curso de desenhos | code black s02e10 | Mollys Massage Molly Jane Ike Diezel | sure Im the one |