Quick Browse
Movies
TV shows
Music
Games
Applications
Anime
Other
Facebook
Advertising

Friends
Torrent Download
Movie4u
1337x.to
Torrent Downloads




Verified torrent Leaves Of Grass [2009] [DVD] [AC3] [Hannspree]


    Seeders : 1      Leechers : 11
Hash :EDA08B291D2C69BC47592D278B14B75DA1980A44
Added :1 Year+ by HannspreeVerified torrent uploader in Movies
Size :1.89 GB
Stream :WATCH ONLINE @ Movie4u


Leaves Of Grass [2009] [DVD] [AC3] [Hannspree]
Free and Fast Download with Usenet 300GB+ free







Trackers List

Tracker NameLast CheckStatusSeedersLeechers




Torrent File Content (11 files)


Leaves Of Grass
    Leaves Of Grass - [DVD]
          Leaves Of Grass - Covers/Leaves Of Grass - Cover.jpg -
68.15 KB

          Leaves Of Grass - Covers/Leaves Of Grass - Disc.jpg -
40.89 KB

          Leaves Of Grass - DVD/VIDEO_TS/VIDEO_TS.BUP -
12 KB

          Leaves Of Grass - DVD/VIDEO_TS/VIDEO_TS.IFO -
12 KB

          Leaves Of Grass - DVD/VIDEO_TS/VIDEO_TS.VOB -
58 KB

          Leaves Of Grass - DVD/VIDEO_TS/VTS_01_0.BUP -
68 KB

          Leaves Of Grass - DVD/VIDEO_TS/VTS_01_0.IFO -
68 KB

          Leaves Of Grass - DVD/VIDEO_TS/VTS_01_0.VOB -
58 KB

          Leaves Of Grass - DVD/VIDEO_TS/VTS_01_1.VOB -
1023.97 MB

          Leaves Of Grass - DVD/VIDEO_TS/VTS_01_2.VOB -
915.77 MB

     Leaves Of Grass - [DVD].NFO -
6.42 KB



Description



=========================================================================================================================
[ Another free and high quality, ready to burn DVD - I will be adding new torrents on a daily basis - Remember to seed ]
=========================================================================================================================
MOVIE TITLE: Leaves Of Grass
LANGUAGE: English
MOVIE SUBS: No - (subtitles if/when required)
BURN TESTED: Yes
FORMAT: Pal
GENRE: Comedy | Crime | Drama | Thriller
RUNTIME: 100 Minutes
YEAR: 2009
IMDB LINK: http://www.imdb.com/title/tt1151359/
=========================================================================================================================
GENERAL MOVIE DESC:

The lives of two identical twins, one an Ivy League philosophy professor, the other a small-time and brilliant marijuana grower, intertwine when the professor is lured back to his Oklahoma hometown for a doomed scheme against a local drug lord.
=========================================================================================================================
GENERAL MOVIE SPECS:

Complete name : Leaves Of Grass
Format : MPEG-PS
File size : 1.89 GB
Duration : 100 Minutes
Overall bit rate : 2 826 Kbps

VIDEO:
ID : 224 (0xE0)
Format : MPEG Video
Format version : Version 2
Format profile : [email protected]
Format settings, BVOP : Yes
Format settings, Matrix : Default
Duration : 100 Minutes
Bit rate mode : Variable
Bit rate : 2 578 Kbps
Nominal bit rate : 9 608 Kbps
Width : 720 pixels
Height : 576 pixels
Display aspect ratio : 16:9
Frame rate : 25.000 fps
Standard : PAL
Color space : YUV
Chroma subsampling : 4:2:0
Bit depth : 8 bits
Scan type : Progressive
Bits/(Pixel*Frame) : 0.249
Stream size : 934 MiB (91%)

AUDIO:
ID : 128 (0x80)
Format : AC-3
Format/Info : Audio Coding 3
Mode extension : CM (complete main)
Duration : 100 Minutes
Bit rate mode : Constant
Bit rate : 192 Kbps
Channel(s) : 2 channels
Channel positions : Front: L R
Sampling rate : 48.0 KHz
Stream size : 69.6 MiB (7%)
=========================================================================================================================

Related torrents

Torrent NameAddedSizeSeedLeechHealth
1 Year+ - in Movies703.08 MB121
1 Year+ - in Movies1.41 GB00
Verified torrent
1 Year+ - in Movies1.46 GB112104
1 Year+ - in Movies1.38 GB04
1 Year+ - in Movies1.38 GB02

Comments (0 Comments)




Please login or create a FREE account to post comments

Latest Searches

| The Do Over2016 | emerson lake and palmer pictures at an exhibition | sticky fingaz kirk jones | lovelace 2013 brrip xvid mp3 rarbg | ms office 2016 32 bit | vanderpump rules s02e08 hdtv x264 yestv glotv | alexis fawx daughter | Paul van Dyk I Dont Deserve You | Nikki Andersson BTS | Big Butt Scary Bike |