Quick Browse
Movies
TV shows
Music
Games
Applications
Anime
Other

Latest Articles

Friends
Torrents.me
Torrent Download
Free Movies
1337x
RARBG
Torrent Downloads

Verified torrent Leaves Of Grass [2009] [DVD] [AC3] [Hannspree]


    Seeders : 1      Leechers : 11

Hash :EDA08B291D2C69BC47592D278B14B75DA1980A44
Added :1 Year+ by HannspreeVerified torrent uploader in Movies
Size :1.89 GB
Stream :Watch Online Full Movie @ Movie4u
Share :


Leaves Of Grass [2009] [DVD] [AC3] [Hannspree]
Download Direct And Anonymously







Warning! Do not Download Torrents Without a VPN!
Your IP Address is .   And Location is
Your Internet Provider and Government can track your torrent Activity!  Hide your IP ADDRESS with a VPN!
We Strongly Recommend Using SpyOFF Torrent VPN to Anonymize your Torrenting. It's FREE for 15 Days!

Note :

Please Update (Trackers Info) Before Downloading Torrents to See Updated Seeders And Leechers for Batter Download Speed.

Trackers List

Tracker NameLast CheckStatusSeedersLeechers




Torrent File Content (11 files)


Leaves Of Grass
    Leaves Of Grass - [DVD]
          Leaves Of Grass - Covers/Leaves Of Grass - Cover.jpg -
68.15 KB

          Leaves Of Grass - Covers/Leaves Of Grass - Disc.jpg -
40.89 KB

          Leaves Of Grass - DVD/VIDEO_TS/VIDEO_TS.BUP -
12 KB

          Leaves Of Grass - DVD/VIDEO_TS/VIDEO_TS.IFO -
12 KB

          Leaves Of Grass - DVD/VIDEO_TS/VIDEO_TS.VOB -
58 KB

          Leaves Of Grass - DVD/VIDEO_TS/VTS_01_0.BUP -
68 KB

          Leaves Of Grass - DVD/VIDEO_TS/VTS_01_0.IFO -
68 KB

          Leaves Of Grass - DVD/VIDEO_TS/VTS_01_0.VOB -
58 KB

          Leaves Of Grass - DVD/VIDEO_TS/VTS_01_1.VOB -
1023.97 MB

          Leaves Of Grass - DVD/VIDEO_TS/VTS_01_2.VOB -
915.77 MB

     Leaves Of Grass - [DVD].NFO -
6.42 KB



Description



=========================================================================================================================
[ Another free and high quality, ready to burn DVD - I will be adding new torrents on a daily basis - Remember to seed ]
=========================================================================================================================
MOVIE TITLE: Leaves Of Grass
LANGUAGE: English
MOVIE SUBS: No - (subtitles if/when required)
BURN TESTED: Yes
FORMAT: Pal
GENRE: Comedy | Crime | Drama | Thriller
RUNTIME: 100 Minutes
YEAR: 2009
IMDB LINK: http://www.imdb.com/title/tt1151359/
=========================================================================================================================
GENERAL MOVIE DESC:

The lives of two identical twins, one an Ivy League philosophy professor, the other a small-time and brilliant marijuana grower, intertwine when the professor is lured back to his Oklahoma hometown for a doomed scheme against a local drug lord.
=========================================================================================================================
GENERAL MOVIE SPECS:

Complete name : Leaves Of Grass
Format : MPEG-PS
File size : 1.89 GB
Duration : 100 Minutes
Overall bit rate : 2 826 Kbps

VIDEO:
ID : 224 (0xE0)
Format : MPEG Video
Format version : Version 2
Format profile : [email protected]
Format settings, BVOP : Yes
Format settings, Matrix : Default
Duration : 100 Minutes
Bit rate mode : Variable
Bit rate : 2 578 Kbps
Nominal bit rate : 9 608 Kbps
Width : 720 pixels
Height : 576 pixels
Display aspect ratio : 16:9
Frame rate : 25.000 fps
Standard : PAL
Color space : YUV
Chroma subsampling : 4:2:0
Bit depth : 8 bits
Scan type : Progressive
Bits/(Pixel*Frame) : 0.249
Stream size : 934 MiB (91%)

AUDIO:
ID : 128 (0x80)
Format : AC-3
Format/Info : Audio Coding 3
Mode extension : CM (complete main)
Duration : 100 Minutes
Bit rate mode : Constant
Bit rate : 192 Kbps
Channel(s) : 2 channels
Channel positions : Front: L R
Sampling rate : 48.0 KHz
Stream size : 69.6 MiB (7%)
=========================================================================================================================

Related torrents

Torrent NameAddedSizeSeedLeechHealth
1 Year+ - in Movies703.08 MB121
1 Year+ - in Movies1.41 GB00
Last Month - in Other8.88 GB00
Last Month - in Other14.73 GB10
Verified torrent
1 Year+ - in Movies1.46 GB112104

Note :

Feel free to post any comments about this torrent, including links to Subtitle, samples, screenshots, or any other relevant information. Please Dont Download anything from Comments, And Dont Post Links to Streaming Sites like Fmovies, Xmovies8, 123Movies, GoMovies, CMovieshd, Solarmovie, Watchfree, Putlockers, GoStream, m4ufree etc.

Comments (0 Comments)




Please login or create a FREE account to post comments

Latest Searches

| x vf | Silver Medalist 2009 | Alexandra Ivy Dragons of Eternity | bruno mars finesse remix feat cardi b | XXX AV 21622 Haruki Sato | perfect blue xvid dvdrip sub english portuguese 1997 | listener discography | top hits 90 s | broken sword 5 pc | henwood |