Quick Browse
Movies
TV shows
Music
Games
Applications
Anime
Other
Facebook
Advertising

Friends
Torrent Download
Movie4u
1337x.to
Torrent Downloads




Verified torrent Legend of the Boneknapper Dragon[2010]DVDrip-BONE


    Seeders : 9      Leechers : 3
Hash :4D8DACBF46C4B3594560FB7C89AC3AA1828EC4EA
Added :1 Year+ by XoLWoXVerified torrent uploader in Movies
Size :147.94 MB
Stream :WATCH ONLINE @ Movie4u


Legend of the Boneknapper Dragon[2010]DVDrip-BONE
Free and Fast Download with Usenet 300GB+ free







Trackers List

Tracker NameLast CheckStatusSeedersLeechers




Torrent File Content (5 files)


Legend of the Boneknapper Dragon[2010]DVDrip-BONE
    Cover
          LOBND-Cover.png -
432 KB

    Info
          lotbnd.nfo -
2.07 KB

    Movie
          Legend of the Boneknapper Dragon[2010]DVDrip-BONE.mp4 -
147.51 MB

    Trackers
          Torrent downloaded from AhaShare.com.txt -
59 bytes

          tracked_by_h33t_com.txt -
23 bytes



Description



http://imgr.us/images/qeyvvmsqk5581rdlc3w.png

Legend.of.the .Boneknapper.Dragon.2010.DVDRip-BONE

runtime - 16min 34sec
video - 1.03mbps
audio - 5.1 224kbs
res - 720x400


Video
ID : 1
Format : AVC
Format/Info : Advanced Video Codec
Format profile : [email protected]
Format settings, CABAC : Yes
Format settings, ReFrames : 2 frames
Format settings, GOP : M=1, N=32
Codec ID : avc1
Codec ID/Info : Advanced Video Coding
Duration : 16mn 34s
Bit rate mode : Variable
Bit rate : 1 018 Kbps
Maximum bit rate : 3 475 Kbps
Width : 720 pixels
Height : 400 pixels
Display aspect ratio : 16:9
Frame rate mode : Constant
Frame rate : 23.976 fps
Color space : YUV
Chroma subsampling : 4:2:0
Bit depth : 8 bits
Scan type : Progressive
Bits/(Pixel*Frame) : 0.147
Stream size : 121 MiB (82%)
Language : English



Audio
ID : 2
Format : AAC
Format/Info : Advanced Audio Codec
Format version : Version 4
Format profile : LC
Format settings, SBR : No
Codec ID : 40
Duration : 16mn 34s
Bit rate mode : Variable
Bit rate : 222 Kbps
Maximum bit rate : 303 Kbps
Channel(s) : 6 channels
Channel positions : Front: L C R, Side: L R, LFE
Sampling rate : 48.0 KHz
Stream size : 26.3 MiB (18%)
Title : Dolby Digital 5.1-ch 48KHz
Language : English


http://www.imdb.com/title/tt1744776/


http://imgr.us/images/fhn7syiecb0he2l4de07.png

http://imgr.us/images/ia9w3odspjl86g6cr38a.png

http://imgr.us/images/eu29krhrvf1wp6yt787.png

http://imgr.us/images/pvzpptwqknnpuqwh2idi.png

Related torrents

Torrent NameAddedSizeSeedLeechHealth
1 Year+ - in Movies147.51 MB10
1 Year+ - in Movies67.67 MB6117
1 Year+ - in Movies973.76 MB291198
1 Year+ - in Movies192.36 MB00
1 Year+ - in Movies583.05 MB816

Comments (0 Comments)




Please login or create a FREE account to post comments

Latest Searches

| No Souvenir | summer Nikki Capone | White Girl 2016 HDRip X | ODESZA say name remix | 1080p 2016 the hollars | Bestimmung 3 | Musaigen no Phantom BDRip | milfs xxx porn | flutter 2014 720p web dl dd5 1 h264 rarbg | 18 wheels o |