Quick Browse
Movies
TV shows
Music
Games
Applications
Anime
Other
Facebook
Advertising

Friends
Torrent Download
Movie4u
1337x.to
Torrent Downloads




Leon The Professional Extended Version 1994 mkv x264 1080p ac3 [Pioneer]


    Seeders : 1      Leechers : 0

Trackers List

Tracker NameLast CheckStatusSeedersLeechers




Torrent File Content (5 files)


Leon The Professional 1994 mkv x264 ac3 [Pioneer]
     Leon The Professional 1994 mkv x264 ac3 [Pioneer].mkv -
2.44 GB

     Torrent downloaded from Silvertorrent.org.txt -
86 bytes

     Torrent Downloaded From ExtraTorrent.com.txt -
339 bytes

    sub
          Leon The Professional 1994 mkv x264 ac3 [Pioneer].sub -
6.91 MB

          Leon The Professional 1994 mkv x264 ac3 [Pioneer].idx -
45.28 KB



Description



http://img547.imageshack.us/img547/9127/8003414.jpg


As visually stylish as it is graphically violent, this thriller directed by Luc Besson concerns Mathilda (Natalie Portman), a 12-year-old girl living in New York City who has been exposed to the sordid side of life from an early age: her family lives in a slum and her abusive father works for drug dealers, cutting and storing dope. Mathilda doesn't much care for her parents, but she has a close bond with her four-year-old brother. One day, she returns from running an errand to discover that most of her family, including her brother, have been killed in a raid by corrupt DEA agents, led by the psychotic Stansfield (Gary Oldman). Mathilda takes refuge in the apartment of her secretive neighbor, Leon (Jean Reno), who takes her in with a certain reluctance. She discovers that Leon is a professional assassin, working for Tony (Danny Aiello), a mob kingpin based in Little Italy. Wanting to avenge the death of her brother, Mathilda makes a deal with Leon to become his protégée in exchange for work as a domestic servant, hoping to learn the hitman's trade and take out the men who took her brother's life. However, an affection develops between Leon and Mathilda that changes his outlook on his life and career.

Director:
Luc Besson
Writer:
Luc Besson
Stars:
Jean Reno, Natalie Portman, Gary Oldman and Danny Aiello

http://www.imdb.com/title/tt0110413/

General
Format : Matroska
Format version : Version 2
File size : 2.44 GiB
Duration : 2h 12mn
Overall bit rate : 2 630 Kbps
Movie name : Leon The Professional 1994 mkv x264 ac3 [Pioneer]
Writing library : libebml v0.7.8 + libmatroska v0.8.1

Video
ID : 1
Format : AVC
Format/Info : Advanced Video Codec
Format profile : [email protected]
Format settings, CABAC : Yes
Format settings, ReFrames : 2 frames
Codec ID : V_MPEG4/ISO/AVC
Duration : 2h 12mn
Bit rate : 2 130 Kbps
Width : 1 920 pixels
Height : 816 pixels
Display aspect ratio : 2.35:1
Frame rate mode : Constant
Frame rate : 24.000 fps
Color space : YUV
Chroma subsampling : 4:2:0
Bit depth : 8 bits
Scan type : Progressive
Bits/(Pixel*Frame) : 0.057
Stream size : 1.97 GiB (81%)
Writing library : x264 core
Default : Yes
Forced : No
Color primaries : BT.709
Transfer characteristics : BT.709
Matrix coefficients : BT.709

Audio
ID : 2
Format : AC-3
Format/Info : Audio Coding 3
Mode extension : CM (complete main)
Format settings, Endianness : Big
Codec ID : A_AC3
Duration : 2h 12mn
Bit rate mode : Constant
Bit rate : 448 Kbps
Channel(s) : 6 channels
Channel positions : Front: L C R, Side: L R, LFE
Sampling rate : 48.0 KHz
Bit depth : 16 bits
Compression mode : Lossy
Stream size : 425 MiB (17%)
Default : Yes
Forced : No

http://img69.imageshack.us/img69/1659/vlcsnap2012122310h44m59.png

http://img821.imageshack.us/img821/1983/vlcsnap2012122310h50m48.png

http://img96.imageshack.us/img96/8228/vlcsnap2012122310h54m47.png

http://img39.imageshack.us/img39/9990/vlcsnap2012122310h55m00.png

http://img819.imageshack.us/img819/333/vlcsnap2012122310h58m18.png

http://img138.imageshack.us/img138/460/vlcsnap2012122310h59m28.png

Related torrents

Torrent NameAddedSizeSeedLeechHealth
1 Year+ - in Movies11.93 GB237
8 months ago - in Movies3.97 GB00
1 Year+ - in Movies1.7 GB126
1 Year+ - in Movies856.89 MB10
1 Year+ - in Movies857.01 MB31

Comments (0 Comments)




Please login or create a FREE account to post comments

Latest Searches

| violoncello piano | navidad remix | shameless | 1 2 2012 DVDRip | anvsoft photo slideshow maker crack | selena santana sophia leone working hard for her money | ally breelsen pictures | expandables 2010 | young bump 2 | Aurora fuckingglasses |