Quick Browse
Movies
TV shows
Music
Games
Applications
Anime
Other

Donate and Support

Friends
Torrents.me
Torrent Download
Free Movies
1337x
RARBG
Torrent Downloads

Les Infideles [2012]DVDRip XviD-ExtraTorrentRG


    Seeders : 37      Leechers : 3
Hash :F0A5FF25062DA4800D2CB5457B07A96F6DF013D9
Added :1 Year+ by L0LPLZVerified torrent uploader in Movies
Size :709.01 MB
Stream :Watch Full Movies Online @ Movie4u
Share :


Les Infideles [2012]DVDRip XviD-ExtraTorrentRG
Anonymous and Direct Download 300GB+ free







Warning! Do not Download Torrents Without a VPN!
Your IP Address is .   And Location is
Your Internet Provider and Government can track your torrent Activity!  Hide your IP ADDRESS with a VPN!
We Strongly Recommend Using SpyOFF Torrent VPN to Anonymize your Torrenting. It's FREE For 15 Days!

Note :

Please Update (Trackers Info) Before Downloading Torrents to See Updated Seeders And Leechers for Batter Download Speed.

Trackers List

Tracker NameLast CheckStatusSeedersLeechers




Torrent File Content (5 files)


Les Infidèles [2012]DVDRip XviD-ExtraTorrentRG
     Les Infidèles [2012]DVDRip XviD-ExtraTorrentRG.rar -
709 MB

     Les Infidèles [2012]DVDRip XviD-ExtraTorrentRG.nfo -
4.58 KB

     LISEZ MOI - Important.txt -
2.17 KB

     Torrent Downloaded From ExtraTorrent.com.txt -
47 bytes

     Torrent Seeded & Tracked by Novalayer.com.txt -
20 bytes



Description



Les Infidèles [2012]DVDRip XviD-ExtraTorrentRG

http://www.imdb.com/title/tt2087850/

Date de sortie: 29 février 2012 (1h 49min)
Réalisé par: Jean Dujardin, Gilles Lellouche, Emmanuelle Bercot
Avec: Jean Dujardin, Gilles Lellouche, Alexandra Lamy
Genre: Comédie
Nationalité: Français

Video
ID : 0
Format : MPEG-4 Visual
Format profile : Advanced Simple@L5
Format settings, BVOP : 2
Format settings, QPel : No
Format settings, GMC : No warppoints
Format settings, Matrix : Default (H.263)
Muxing mode : Packed bitstream
Codec ID : XVID
Codec ID/Hint : XviD
Duration : 1h 49min
Bit rate : 2 645 Kbps
Width : 720 pixels
Height : 384 pixels
Display aspect ratio : 1.875
Frame rate : 25.000 fps
Color space : YUV
Chroma subsampling : 4:2:0
Bit depth : 8 bits
Scan type : Progressive
Compression mode : Lossy
Bits/(Pixel*Frame) : 0.383
Stream size : 1.45 GiB (95%)
Writing library : XviD 64

Audio
ID : 1
Format : MPEG Audio
Format version : Version 1
Format profile : Layer 3
Mode : Joint stereo
Mode extension : MS Stereo
Codec ID : 55
Codec ID/Hint : MP3
Duration : 1h 49min
Bit rate mode : Constant
Bit rate : 128 Kbps
Channel(s) : 2 channels
Sampling rate : 44.1 KHz
Compression mode : Lossy
Stream size : 71.9 MiB (5%)
Alignment : Split accross interleaves
Interleave, duration : 40 ms (1.00 video frame)


Recommandé pour tous nos films
http://www.videolan.org/vlc/

Salutations à Tout Ceux qui font leur possible pour soutenir le P2P Et La Scène ;)

Related torrents

Torrent NameAddedSizeSeedLeechHealth
1 Year+ - in Movies2.06 GB00
1 Year+ - in Movies698.85 MB710
1 Year+ - in Movies711.16 MB00
1 Year+ - in Movies701.14 MB53019
1 Year+ - in Movies699.22 MB10

Comments (3 Comments)




teorema
» Downloaded this torrent Downloaded this torrent » Voted Bad Voted Bad for this torrent for this torrent

Added 1 Year+
Fake
teorema
» Downloaded this torrent Downloaded this torrent » Voted Bad Voted Bad for this torrent for this torrent

Added 1 Year+
asks password to unzip and not in the post, you must complete survey. It's fake.
teorema
» Downloaded this torrent Downloaded this torrent » Voted Bad Voted Bad for this torrent for this torrent

Added 1 Year+
FAKE
Please login or create a FREE account to post comments

Latest Searches

| Dragon Ball Super 480p 94 | Ali Wong Baby Cobra 2016 | 2002 1080p bluray | Las Canciones De Nuestra Vida Volumen | WebYoung 15 02 20 Ariana Marie And Halle Von Tryouts 1080p MP4 | forced sex gangbang | Jennifer Dark Take My Wife Please | Blackmores night violet moon | Gangstar Vegas v3 | 040717 409 |