Quick Browse
Movies
TV shows
Music
Games
Applications
Anime
Other

Donate and Support

Friends
Torrents.me
Torrent Download
Free Movies
1337x
RARBG
Torrent Downloads

Let My People Go! (2011) FRENCH TS XviD-IMAGiNE


    Seeders : 0      Leechers : 0
Hash :A34B9C761DD7266AD70A7FF9BF184CAA783A78C8
Added :1 Year+ by L0LPLZVerified torrent uploader in Movies
Size :700.2 MB
Stream :Watch Full Movies Online @ Movie4u
Share :


Let My People Go! (2011) FRENCH TS XviD-IMAGiNE
Anonymous and Direct Download 300GB+ free







Warning! Do not Download Torrents Without a VPN!
Your IP Address is .   And Location is
Your Internet Provider and Government can track your torrent Activity!  Hide your IP ADDRESS with a VPN!
We Strongly Recommend Using SpyOFF Torrent VPN to Anonymize your Torrenting. It's FREE For 15 Days!

Note :

Please Update (Trackers Info) Before Downloading Torrents to See Updated Seeders And Leechers for Batter Download Speed.

Trackers List

Tracker NameLast CheckStatusSeedersLeechers
udp://tracker.coppersurfer.tk:80Last Monthsuccess00
http://tracker.trackerfix.com/announceLast Monthsuccess00
udp://ipv4.tracker.harry.lu:80/announceLast Monthsuccess00




Torrent File Content (8 files)


Let My People Go! (2011) FRENCH TS XviD-IMAGiNE
     Let My People Go! (2011) FRENCH TS XviD-IMAGiNE.rar -
700.11 MB

     affiche-let-my-people-go.jpg -
83.35 KB

     Let My People Go! (2011) FRENCH TS XviD-IMAGiNE.nfo -
5.09 KB

     LISEZ MOI - Important.txt -
3.99 KB

     Torrent Seeded & Tracked by Novalayer.com.txt -
167 bytes

     sceneunderground.org.txt -
77 bytes

     Torrent downloaded from Demonoid.me.txt -
46 bytes

     Torrent downloaded from Suprnova.me.txt -
42 bytes



Description



Title: Let My People Go! (2011) FRENCH TS XviD-IMAGiNE
Format: Xvid

IDMB: http://www.imdb.com/title/tt1841713/
Audio : SUCKIT - Merci beaucoup :P ;)
Video: RELIZLAB fichiers source - Merci également! ;) :P


Synopsis:
Tout le monde sait que Ruben est juif, homosexuel, facteur, mi-finlandais, mi-français, fils indigne, frère désobligeant, amant décevant, assassin douteux, voleur malgré lui… Pourtant Ruben, lui, est incapable de savoir qui il est. Au grand tournant de sa vie, alors que s’ouvrent devant lui les flots de la mer Rouge, Ruben hésite : doit-il suivre son peuple ou son cœur ?
Video
ID : 0
Format : MPEG-4 Visual
Format profile : Advanced [email protected]
Format settings, BVOP : 2
Format settings, QPel : No
Format settings, GMC : No warppoints
Format settings, Matrix : Default (H.263)
Codec ID : XVID
Codec ID/Hint : XviD
Duration : 1h 28mn
Bit rate : 1 349 Kbps
Width : 720 pixels
Height : 304 pixels
Display aspect ratio : 2.35:1
Frame rate : 25.000 fps
Color space : YUV
Chroma subsampling : 4:2:0
Bit depth : 8 bits
Scan type : Progressive
Compression mode : Lossy
Bits/(Pixel*Frame) : 0.247
Stream size : 1.08 GiB (91%)

Audio
ID : 1
Format : MPEG Audio
Format version : Version 1
Format profile : Layer 3
Mode : Joint stereo
Mode extension : MS Stereo
Codec ID : 55
Codec ID/Hint : MP3
Duration : 1h 28mn
Bit rate mode : Constant
Bit rate : 128 Kbps
Channel(s) : 2 channels
Sampling rate : 44.1 KHz
Compression mode : Lossy
Stream size : 105 MiB (9%)
Alignment : Aligned on interleaves
Interleave, duration : 40 ms (1.00 video frame)
Writing library : LAME3.98r
Encoding settings : -m j -V 4 -q 2 -lowpass 17 -b 128



Salutations à Tout Ceux qui font leur possible pour soutenir le P2P Et La Scène ;)

Related torrents

Torrent NameAddedSizeSeedLeechHealth
1 Year+ - in Movies701.02 MB01
1 Year+ - in Movies1.27 GB01
1 Year+ - in Movies800.49 MB14
Verified torrent
1 Year+ - in Movies4.37 GB00
1 Year+ - in Movies729.61 MB00

Comments (0 Comments)




Please login or create a FREE account to post comments

Latest Searches

| the thing 2011 mkv | fate of the union | 21sextreme anita | underworld 5 hindi 2016 | now call 70 | power movie dvdrip telugu | Young Hungry s04e09 | the musketeers season 1080p | 510 creative | jarryd james jarryd james |