Quick Browse
Movies
TV shows
Music
Games
Applications
Anime
Other
Facebook
Advertising

Friends
Torrent Download
Movie4u
1337x.to
Torrent Downloads




Verified torrent Letters To God [DVD5] [ENG] [AC3] [Hannspree]


    Seeders : 1      Leechers : 10
Hash :13E1AFC9A5B31ED54C2F0FD3ABF37DC570ACA6D2
Added :1 Year+ by HannspreeVerified torrent uploader in Movies
Size :2.32 GB
Stream :WATCH ONLINE @ Movie4u


Letters To God [DVD5] [ENG] [AC3] [Hannspree]
Free and Fast Download with Usenet 300GB+ free







Trackers List

Tracker NameLast CheckStatusSeedersLeechers




Torrent File Content (15 files)


Letters To God
    Letters To God [DVD]
          VIDEO_TS/VIDEO_TS.BUP -
12 KB

          VIDEO_TS/VIDEO_TS.IFO -
12 KB

          VIDEO_TS/VIDEO_TS.VOB -
58 KB

          VIDEO_TS/VTS_01_0.BUP -
78 KB

          VIDEO_TS/VTS_01_0.IFO -
78 KB

          VIDEO_TS/VTS_01_0.VOB -
58 KB

          VIDEO_TS/VTS_01_1.VOB -
1023.97 MB

          VIDEO_TS/VTS_01_2.VOB -
1023.97 MB

          VIDEO_TS/VTS_01_3.VOB -
320.65 MB

          Letters To God [Images]/Letters To God [DVD] Cover.jpg -
2.75 MB

          Letters To God [Images]/Letters To God [DVD] Disc.jpg -
454.55 KB

          Letters To God [Images]/Letters To God1.jpg -
172.58 KB

          Letters To God [Images]/Letters To God2.jpg -
153.34 KB

     Letters To God.NFO -
4.35 KB

     Torrent downloaded from Demonoid.com.txt -
47 bytes



Description



=====================================================================================
[ Another free, high quality, ready to burn DVD I will be adding new torrents on a daily basis - Remember to seed ]
=====================================================================================
MOVIE TITLE: Letters To God
LANGUAGE: English
MOVIE SUBS: No
BURN TESTED: Yes
FORMAT: Pal
GENRE: Drama | Family
RUNTIME: 114 Minutes
YEAR: 2010
IMDB LINK: http://www.imdb.com/title/tt1462054/
=====================================================================================
MOVIE DESC:

The story of what happens when one boy's walk of faith crosses paths with one man's search for meaning-the resulting transformational journey touches the lives of everyone around them. Tyler Doherty is an extraordinary eight-year-old boy. Surrounded by a loving family and community, and armed with the courage of his faith, he faces his daily battle against cancer with bravery and grace. To Tyler, God is a friend, a teacher and the ultimate pen pal Tyler's prayers take the form of letters, which he composes and mails on a daily basis. The letters find their way into the hands of Brady McDaniels, a beleaguered postman standing at a crossroads in his life. At first, he is confused and conflicted over what to do with the letters. But the decision he ultimately makes becomes a testament to the quiet power of one boy's shining spirit and unshakable faith.
=====================================================================================
MOVIE SPECS:

GENERAL:
Complete name : Letters To God [DVD5]
Format : MPEG-PS
File size : 2.31 GB
Duration : 114 Minutes
Overall bit rate : 3 058 Kbps

VIDEO:
ID : 224 (0xE0)
Format : MPEG Video
Format version : Version 2
Format profile : [email protected]
Format settings, BVOP : Yes
Format settings, Matrix : Default
Duration : 114 Minutes
Bit rate mode : Variable
Bit rate : 2 805 Kbps
Nominal bit rate : 9 608 Kbps
Width : 720 pixels
Height : 576 pixels
Display aspect ratio : 16:9
Frame rate : 24.000 fps
Standard : PAL
Color space : YUV
Chroma subsampling : 4:2:0
Bit depth : 8 bits
Scan type : Progressive
Scan order : 2:2:2:2:2:2:2:2:2:2:2:3 Pulldown
Bits/(Pixel*Frame) : 0.282
Stream size : 939 MiB (92%)

AUDIO:
ID : 128 (0x80)
Format : AC-3
Format/Info : Audio Coding 3
Mode extension : CM (complete main)
Duration : 114 Minutes
Bit rate mode : Constant
Bit rate : 192 Kbps
Channel(s) : 2 channels
Channel positions : Front: L R
Sampling rate : 48.0 KHz
Stream size : 64.3 MiB (6%)
=====================================================================================
TRACKERS:
http://inferno.demonoid.com:3402/announce
http://denis.stalker.h3q.com:6969/announce
http://nemesis.1337x.org/announce
http://exodus.1337x.org/announce
http://tracker.publicbt.com/announce
http://10.rarbg.com/announce
http://tracker.ilibr.org:6969/announce
http://rt.beeretracker.net/announce.php
http://red.tracker.prq.to/announce
http://tpb.tracker.prq.to/announce
=====================================================================================
[FOOT NOTE]
If you are happy with this download, it would be nice to hear your views or comments that you might have. Enjoy
=====================================================================================
Screnn Shots Of Letters To God

http://leetpic.com/images/letterstog.jpg

=====================================================================================

http://leetpic.com/images/letterjtj.jpg

=====================================================================================

Related torrents

Torrent NameAddedSizeSeedLeechHealth
Verified torrent
1 Year+ - in Movies1.68 GB42
Verified torrent
1 Year+ - in Movies1.63 GB03
Verified torrent
1 Year+ - in Movies2.14 GB28
Verified torrent
1 Year+ - in Movies869.42 MB55
Verified torrent
1 Year+ - in Movies2 GB02

Comments (0 Comments)




Please login or create a FREE account to post comments

Latest Searches

| hard fucking orgasms | christmas paper cut | losing h e r | r b new releases 2016 | Home Alone 2 DVDRipEng1992 avi | lChinua Achebe Arrow of God The African Trilogy 3 PDF | th wiz | Penthouse Still Life | Scream Queens 2015 s02e07 | david zowie every weekend |