Quick Browse
Movies
TV shows
Music
Games
Applications
Anime
Other
Facebook
Advertising

Friends
Torrent Download
Movie4u
1337x.to
Torrent Downloads




Verified torrent Life Of Pi 2012 SILVER TS XVID-26K


    Seeders : 6629      Leechers : 2730
Hash :C39769D77E46ED8C4EECA2C855081426E23EF330
Added :1 Year+ by memory100Verified torrent uploader in Movies
Size :1.54 GB
Stream :WATCH ONLINE @ Movie4u


Life Of Pi 2012 SILVER TS XVID-26K
Free and Fast Download with Usenet 300GB+ free







Trackers List

Tracker NameLast CheckStatusSeedersLeechers




Torrent File Content (10 files)


Life.Of.Pi.2012.SILVER.TS.XVID-26K
     Life.Of.Pi.2012.SILVER.TS.XVID-26K.avi -
1.54 GB

     2.png -
365.23 KB

     4.png -
352.41 KB

     1.png -
338 KB

     3.png -
191.66 KB

     26k NFO.NFO -
11.18 KB

     Meggafast.com.txt -
124 bytes

     YouTube Latest Releases And Archive.txt -
86 bytes

     Sceneunderground.org.txt -
77 bytes

     Torrent downloaded from rarbg.com.txt.txt -
0 bytes



Description



http://img545.imageshack.us/img545/8886/lifew.jpg


[code]

Life.Of.Pi.2012.SILVER.TS.XVID-26K

http://www.imdb.com/title/tt0454876/


Plot:

A young man who survives a disaster at sea is hurtled into an epic journey of adventure and discovery.
While cast away, he forms an unexpected connection with another survivor ... a fearsome Bengal tiger.

Sources - VIDEO: Asian Silver.. ..... thanks .... :P
AUDIO: A friend ..... thanks .... :P
SUBS : Hard Coded English for MOST foreign speaking parts..


Format : AVI
Format/Info : Audio Video Interleave
File size : 1.54 GiB
Duration : 2h 4mn
Overall bit rate : 1 775 Kbps
Writing library : VirtualDub build 32839/release

Video
ID : 0
Format : MPEG-4 Visual
Format profile : Advanced [email protected]
Format settings, BVOP : 2
Format settings, QPel : Yes
Format settings, GMC : No warppoints
Format settings, Matrix : Default (H.263)
Muxing mode : Packed bitstream
Codec ID : XVID
Codec ID/Hint : XviD
Duration : 2h 4mn
Bit rate : 1 637 Kbps
Width : 720 pixels
Height : 400 pixels
Display aspect ratio : 16:9
Frame rate : 25.000 fps
Color space : YUV
Chroma subsampling : 4:2:0
Bit depth : 8 bits
Scan type : Progressive
Compression mode : Lossy
Bits/(Pixel*Frame) : 0.227
Stream size : 1.42 GiB (92%)
Writing library : XviD 64

Audio
ID : 1
Format : MPEG Audio
Format version : Version 1
Format profile : Layer 3
Mode : Joint stereo
Mode extension : MS Stereo
Codec ID : 55
Codec ID/Hint : MP3
Duration : 2h 4mn
Bit rate mode : Constant
Bit rate : 128 Kbps
Channel(s) : 2 channels
Sampling rate : 44.1 KHz
Compression mode : Lossy
Stream size : 114 MiB (7%)
Alignment : Split accross interleaves
Interleave, duration : 40 ms (1.00 video frame)
Writing library : LAME3.98r
Encoding settings : -m j -V 4 -q 3 -lowpass 17 -b 128

Notes -

K we got passes a very nice Asian Silver.. thanks bro.. so we took it and jsut cleaned it up as it
was a very nice source to begin with. there are sum occaional borders here and ther but not a bother
at least not to me for the q of the vid and then we just synced and muxed the LiNE that we got passed
thanks for that bro.. very nice LiNE btw.. :bow:

Side Note...... FULL MOVIE... ENJOY

[/code]

Screens:

http://i.imgur.com/RJzle.png

http://i.imgur.com/V7xA2.png

http://i.imgur.com/jLPf4.png

http://i.imgur.com/8b6ur.png

http://i.imgur.com/asLcl.jpg

http://img713.imageshack.us/img713/9066/vlcsnap2012122418h20m34.png

http://img339.imageshack.us/img339/7069/vlcsnap2012122418h21m14.png

http://img19.imageshack.us/img19/6457/vlcsnap2012122418h21m31.png

http://img545.imageshack.us/img545/3537/vlcsnap2012122418h21m44.png

http://img856.imageshack.us/img856/5698/vlcsnap2012122418h21m49.png

http://img688.imageshack.us/img688/2743/vlcsnap2012122418h22m08.png

http://img823.imageshack.us/img823/2233/vlcsnap2012122418h22m22.png

http://img842.imageshack.us/img842/6519/vlcsnap2012122418h21m00.png


Greetz:
XtremeEncode|CM8|RX|VISION|HDSCENE|xTriLL|ADTRG|CRYS|REMIXHD|HS|Tommiecook
BIDA|RX|REFILL|INSPiRAL|AXED|HOPE|Anonymous|GooN|NOIR|Blackjesus|Gabroo Punjab Deh
|UNiQUE|RESiSTANCE|TRiNiTY|LEGION

To all the people who have helped me, you know who you are

Anything to offer email us @: [email protected]

Related torrents

Torrent NameAddedSizeSeedLeechHealth
1 Year+ - in Other1.54 GB00
1 Year+ - in Applications1.54 GB00
1 Year+ - in Applications1.54 GB00
1 Year+ - in Applications1.54 GB13
1 Year+ - in Movies1.54 GB00
1 Year+ - in Applications1.54 GB00

Comments (0 Comments)




Please login or create a FREE account to post comments

Latest Searches

| 3d video converter 4 5 1 crack | clubland eurodance full album | s love maya grand | bangbrosclips arianna knight raven threes company | foot e | coldplay Viva la Vida or Death All His Friends | how to get away with murder s01e10 | swinger hot | wickeds best | x265 zazie |