Quick Browse
Movies
TV shows
Music
Games
Applications
Anime
Other

Donate and Support

Friends
Torrents.me
Torrent Download
Free Movies
1337x
RARBG
Torrent Downloads

Verified torrent Life of Pi 2012 DVDScr Hindi


    Seeders : 1      Leechers : 3
Hash :424300FB460231DE1A4C80E3CD924B169240D9BD
Added :1 Year+ by souravfileVerified torrent uploader in Movies
Size :689.16 MB
Stream :Watch Full Movies Online @ Movie4u
Share :


Life of Pi 2012 DVDScr Hindi
Anonymous and Direct Download 300GB+ free







Warning! Do not Download Torrents Without a VPN!
Your IP Address is .   And Location is
Your Internet Provider and Government can track your torrent Activity!  Hide your IP ADDRESS with a VPN!
We Strongly Recommend Using SpyOFF Torrent VPN to Anonymize your Torrenting. It's FREE For 15 Days!

Note :

Please Update (Trackers Info) Before Downloading Torrents to See Updated Seeders And Leechers for Batter Download Speed.

Trackers List

Tracker NameLast CheckStatusSeedersLeechers




Torrent File Content (3 files)


Life of Pi DVDScr Hindi
     Life of Pi DVDScr Hindi.mkv -
689.16 MB

     Torrent Downloaded From Digtorrent.org.txt -
346 bytes

     Torrent downloaded from souravfile torrents on BTScene.eu.txt -
69 bytes



Description



http://hostpicturefree.com/images/bannerlnl.gif


Cover:

http://ia.media-imdb.com/images/M/MV5BNTg2OTY2ODg5OF5BMl5BanBnXkFtZTcwODM5MTYxOA@@._V1._SY317_.jpg


Release info:

[code]General
Format : Matroska
Format version : Version 2
File size : 689 MiB
Duration : 2h 5mn
Overall bit rate : 770 Kbps


Video
ID : 1
Format : MPEG-4 Visual
Format profile : Advanced [email protected]
Format settings, BVOP : Yes
Format settings, QPel : No
Format settings, GMC : No warppoints
Format settings, Matrix : Default (H.263)
Codec ID : V_MS/VFW/FOURCC / XVID
Codec ID/Hint : XviD
Duration : 2h 5mn
Bit rate : 675 Kbps
Width : 608 pixels
Height : 336 pixels
Display aspect ratio : 16:9
Frame rate mode : Constant
Frame rate : 25.000 fps
Color space : YUV
Chroma subsampling : 4:2:0
Bit depth : 8 bits
Scan type : Progressive
Compression mode : Lossy
Bits/(Pixel*Frame) : 0.132
Stream size : 604 MiB (88%)
Title : Life of Pi DVDScr Hindi
Language : Hindi
Default : Yes
Forced : No

Audio
ID : 2
Format : MPEG Audio
Format version : Version 1
Format profile : Layer 3
Mode : Joint stereo
Mode extension : MS Stereo
Muxing mode : Header stripping
Codec ID : A_MPEG/L3
Codec ID/Hint : MP3
Duration : 2h 5mn
Bit rate mode : Constant
Bit rate : 80.0 Kbps
Channel(s) : 2 channels
Sampling rate : 32.0 KHz
Compression mode : Lossy
Stream size : 71.6 MiB (10%)
Title : Life of Pi DVDScr Hindi
Language : Hindi
Default : Yes
Forced : No


Source:
credit to original movie ripper DDR (Thanks)[/code]

IMDB Info:

[code]A young man who survives a disaster at sea is hurtled into an epic journey of adventure and discovery. While cast away, he forms an unexpected connection with another survivor ... a fearsome Bengal tiger.

Director: Ang Lee
Writers: David Magee (screenplay), Yann Martel (novel)
Stars: Suraj Sharma, Irrfan Khan and Adil Hussain

Genres: Adventure | Drama[/code]

http://www.imdb.com/title/tt0454876/

Screen Shot:

http://www.shotpix.com/images/52719223611156014224.png

http://www.shotpix.com/images/70276737527378759084.png

http://www.shotpix.com/images/70243549913500216371.png

http://www.shotpix.com/images/75303821829643326127.png

http://www.shotpix.com/images/55705286909243782953.png

http://www.shotpix.com/images/48247774856532292370.png

Related torrents

Torrent NameAddedSizeSeedLeechHealth
1 Year+ - in Movies690.63 MB00
1 Year+ - in Movies615.86 MB04
Verified torrent
1 Year+ - in Movies1.49 GB00
Verified torrent
1 Year+ - in Movies619.52 MB00
Verified torrent
1 Year+ - in Movies1.99 GB128

Comments (0 Comments)




Please login or create a FREE account to post comments

Latest Searches

| NaughtyAmerica Aidra Fox Johnny Castle | Diary of a Wimpy Kid The Long Haul hevc | DUAL hindi Pirates of the Caribbean The Curse of the Black Pearl 2003 | horriblesubs sengoku musou 02 720p mkv | A GIRL OF GRACE | the war of the planet of the apes English | Animal Kingdom s02e08 1080p | Busty Mila Milan takes on 4 cock and does double SZ1728 | jamiroquai superfresh mp3 | bbw mature mix |