Quick Browse
Movies
TV shows
Music
Games
Applications
Anime
Other
Facebook
Advertising

Friends
Torrent Download
Movie4u
1337x.to
Torrent Downloads




Lil' Jon & The Eastside Boyz feat ElephantMan Busta Rhymes - Get Low (Remix) [Solly4Life]


    Seeders : 8      Leechers : 6

Trackers List

Tracker NameLast CheckStatusSeedersLeechers




Torrent File Content (2 files)


Lil'.Jon.&.The.Eastside.Boyz.-.Get.Low.(Remix)
     Lil'.Jon.&.The.Eastside.Boyz.-.Get.Low.(Remix).rar -
58.58 MB

     tracked_by_h33t_com.txt -
23 bytes



Description



General
Complete name : Lil'.Jon.&.The.Eastside.Boyz.feat..Elephant.Man,.Busta.Rhymes.&.Ying.Yang.Twins.-.Get.Low.(Remix).[Solly4Life].mpg
Format : MPEG-PS
File size : 59.9 MiB
Duration : 4mn 37s
Overall bit rate : 1 808 Kbps
Writing library : encoded by TMPGEnc (ver. 2.513.53.162)

Video
ID : 224 (0xE0)
Format : MPEG Video
Format version : Version 1
Format settings, Matrix : Default
Duration : 4mn 37s
Bit rate mode : Variable
Bit rate : 1 512 Kbps
Width : 352 pixels
Height : 240 pixels
Display aspect ratio : 4/3
Frame rate : 29.970 fps
Scan type : Progressive
Bits/(Pixel*Frame) : 0.597
Stream size : 50.1 MiB (84%)
Writing library : TMPGEnc 2.513.53.162

Audio
ID : 192 (0xC0)
Format : MPEG Audio
Format version : Version 1
Format profile : Layer 2
Duration : 4mn 37s
Bit rate mode : Constant
Bit rate : 224 Kbps
Channel(s) : 2 channels
Sampling rate : 44.1 KHz
Resolution : 16 bits
Stream size : 7.40 MiB (12%)

Related torrents

Torrent NameAddedSizeSeedLeechHealth
1 Year+ - in Music58.65 MB10
1 Year+ - in Music3.25 MB05
1 Year+ - in Music11.26 MB105
1 Year+ - in Music6.96 MB00
1 Year+ - in Other120.38 MB10

Comments (0 Comments)




Please login or create a FREE account to post comments

Latest Searches

| colbie caillat coco deluxe | Don t Tell 2016 | griffith morning | vikings s04e12 eztv | Mike Bassett England Manager 2001 | dr dee alaska vet s02e01 | aidra f | cricket ea 2016 | Dr Strange 2016 | texas chainsaw2013 |