Quick Browse
Movies
TV shows
Music
Games
Applications
Anime
Other

Latest Articles

Friends
Torrents.me
Torrent Download
Free Movies
1337x
RARBG
Torrent Downloads

Lil' Jon & The Eastside Boyz feat ElephantMan Busta Rhymes - Get Low (Remix) [Solly4Life]


    Seeders : 8      Leechers : 6

Warning! Do not Download Torrents Without a VPN!
Your IP Address is .   And Location is
Your Internet Provider and Government can track your torrent Activity!  Hide your IP ADDRESS with a VPN!
We Strongly Recommend Using SpyOFF Torrent VPN to Anonymize your Torrenting. It's FREE for 15 Days!

Note :

Please Update (Trackers Info) Before Downloading Torrents to See Updated Seeders And Leechers for Batter Download Speed.

Trackers List

Tracker NameLast CheckStatusSeedersLeechers




Torrent File Content (2 files)


Lil'.Jon.&.The.Eastside.Boyz.-.Get.Low.(Remix)
     Lil'.Jon.&.The.Eastside.Boyz.-.Get.Low.(Remix).rar -
58.58 MB

     tracked_by_h33t_com.txt -
23 bytes



Description



General
Complete name : Lil'.Jon.&.The.Eastside.Boyz.feat..Elephant.Man,.Busta.Rhymes.&.Ying.Yang.Twins.-.Get.Low.(Remix).[Solly4Life].mpg
Format : MPEG-PS
File size : 59.9 MiB
Duration : 4mn 37s
Overall bit rate : 1 808 Kbps
Writing library : encoded by TMPGEnc (ver. 2.513.53.162)

Video
ID : 224 (0xE0)
Format : MPEG Video
Format version : Version 1
Format settings, Matrix : Default
Duration : 4mn 37s
Bit rate mode : Variable
Bit rate : 1 512 Kbps
Width : 352 pixels
Height : 240 pixels
Display aspect ratio : 4/3
Frame rate : 29.970 fps
Scan type : Progressive
Bits/(Pixel*Frame) : 0.597
Stream size : 50.1 MiB (84%)
Writing library : TMPGEnc 2.513.53.162

Audio
ID : 192 (0xC0)
Format : MPEG Audio
Format version : Version 1
Format profile : Layer 2
Duration : 4mn 37s
Bit rate mode : Constant
Bit rate : 224 Kbps
Channel(s) : 2 channels
Sampling rate : 44.1 KHz
Resolution : 16 bits
Stream size : 7.40 MiB (12%)

Related torrents

Torrent NameAddedSizeSeedLeechHealth
2 months ago - in Other51.42 MB01
1 Year+ - in Music58.65 MB10
6 months ago - in Other5.32 MB00
7 months ago - in Other4.63 MB00
1 Year+ - in Music3.25 MB05

Note :

Feel free to post any comments about this torrent, including links to Subtitle, samples, screenshots, or any other relevant information. Please Dont Download anything from Comments, And Dont Post Links to Streaming Sites like Fmovies, Xmovies8, 123Movies, GoMovies, CMovieshd, Solarmovie, Watchfree, Putlockers, GoStream, m4ufree etc.

Comments (0 Comments)




Please login or create a FREE account to post comments

Latest Searches

| simply lana ray | the big bang theory season 3 dvdrip xvid | Ibm spss mac | i love bad | dragon ball super english 13 | the matrix revolutions dubbed | 1 L A R S Its A Hold Up | The Relic DVDRIP SPANISH | alan walker faded | the with keeping kardashians s14e15 up |