Quick Browse
Movies
TV shows
Music
Games
Applications
Anime
Other

Donate and Support

Friends
Torrents.me
Torrent Download
Free Movies
1337x
RARBG
Torrent Downloads

Lil' Jon & The Eastside Boyz feat ElephantMan Busta Rhymes - Get Low (Remix) [Solly4Life]


    Seeders : 8      Leechers : 6

Warning! Do not Download Torrents Without a VPN!
Your IP Address is .   And Location is
Your Internet Provider and Government can track your torrent Activity!  Hide your IP ADDRESS with a VPN!
We Strongly Recommend Using SpyOFF Torrent VPN to Anonymize your Torrenting. It's FREE For 15 Days!

Note :

Please Update (Trackers Info) Before Downloading Torrents to See Updated Seeders And Leechers for Batter Download Speed.

Trackers List

Tracker NameLast CheckStatusSeedersLeechers




Torrent File Content (2 files)


Lil'.Jon.&.The.Eastside.Boyz.-.Get.Low.(Remix)
     Lil'.Jon.&.The.Eastside.Boyz.-.Get.Low.(Remix).rar -
58.58 MB

     tracked_by_h33t_com.txt -
23 bytes



Description



General
Complete name : Lil'.Jon.&.The.Eastside.Boyz.feat..Elephant.Man,.Busta.Rhymes.&.Ying.Yang.Twins.-.Get.Low.(Remix).[Solly4Life].mpg
Format : MPEG-PS
File size : 59.9 MiB
Duration : 4mn 37s
Overall bit rate : 1 808 Kbps
Writing library : encoded by TMPGEnc (ver. 2.513.53.162)

Video
ID : 224 (0xE0)
Format : MPEG Video
Format version : Version 1
Format settings, Matrix : Default
Duration : 4mn 37s
Bit rate mode : Variable
Bit rate : 1 512 Kbps
Width : 352 pixels
Height : 240 pixels
Display aspect ratio : 4/3
Frame rate : 29.970 fps
Scan type : Progressive
Bits/(Pixel*Frame) : 0.597
Stream size : 50.1 MiB (84%)
Writing library : TMPGEnc 2.513.53.162

Audio
ID : 192 (0xC0)
Format : MPEG Audio
Format version : Version 1
Format profile : Layer 2
Duration : 4mn 37s
Bit rate mode : Constant
Bit rate : 224 Kbps
Channel(s) : 2 channels
Sampling rate : 44.1 KHz
Resolution : 16 bits
Stream size : 7.40 MiB (12%)

Related torrents

Torrent NameAddedSizeSeedLeechHealth
1 Year+ - in Music58.65 MB10
3 months ago - in Other4.63 MB00
2 months ago - in Other4.22 MB00
3 months ago - in Other552.81 MB00
1 Year+ - in Music3.25 MB05

Comments (0 Comments)




Please login or create a FREE account to post comments

Latest Searches

| EverythingButt Dana Dearmond Emma Haize Claire Robbins | bachman cummings | lets have a foursome susan ayn | Toward the terra 1980 | Kta Came for More | DVDRip XviD ITA MP3 | a victoria de 19 anitos la gusta que le rompan muy fuerte el culo | her tonight to the b | 1080p bluray 2014 rarbg | Ginsberg Allen Ginsberg Poetry Collection |