Quick Browse
Movies
TV shows
Music
Games
Applications
Anime
Other
Facebook
Advertising

Friends
Torrent Download
Movie4u
1337x.to
Torrent Downloads




Verified torrent Lil Wayne - I'm Not A Human Being [KingPinVideos]


    Seeders : 72      Leechers : 6
Hash :3FC648E1A2A810D4F6BFA8CEF38B8D7BD3A4E62C
Added :1 Year+ by KingPinVerified torrent uploader in Music - Music Videos
Size :87.14 MB
Stream :WATCH ONLINE @ Movie4u


Lil Wayne - I'm Not A Human Being [KingPinVideos]
Free and Fast Download with Usenet 300GB+ free







Trackers List

Tracker NameLast CheckStatusSeedersLeechers




Torrent File Content (5 files)


Lil Wayne - Im Not A Human Being [KingPinVideos]
     Lil Wayne - Im Not A Human Being [KingPinVideos].mpg -
87.14 MB

     Lil Wayne - Im Not A Human Being [KingPinVideos].nfo -
1.93 KB

     Lil Wayne - Im Not A Human Being [KingPinVideos].txt -
1.64 KB

     Torrent downloaded from Demonoid.com.txt -
47 bytes

     Torrent Downloaded from Limetorrents.com.txt -
46 bytes



Description



http://img411.imageshack.us/img411/4899/lilwaynehuman.png


http://img830.imageshack.us/img830/4747/lilwaynehuman2.png


[code]General
Complete name : Lil Wayne - Im Not A Human Being [KingPinVideos].mpg
Format : MPEG-PS
File size : 87.1 MiB
Duration : 4mn 15s
Overall bit rate : 2 856 Kbps
Writing library : encoded by TMPGEnc 4.0 XPress Version. 4.7.4.299

Video
ID : 224 (0xE0)
Format : MPEG Video
Format version : Version 1
Format settings, BVOP : Yes
Format settings, Matrix : Default
Duration : 4mn 15s
Bit rate mode : Constant
Bit rate : 2 615 Kbps
Nominal bit rate : 2 700 Kbps
Width : 384 pixels
Height : 208 pixels
Display aspect ratio : 16:9
Frame rate : 29.970 fps
Resolution : 8 bits
Scan type : Progressive
Bits/(Pixel*Frame) : 1.092
Stream size : 79.8 MiB (92%)
Writing library : TMPGEnc XPress 4.7.4.299

Audio
ID : 192 (0xC0)
Format : MPEG Audio
Format version : Version 1
Format profile : Layer 2
Duration : 4mn 15s
Bit rate mode : Constant
Bit rate : 128 Kbps
Channel(s) : 2 channels
Sampling rate : 48.0 KHz
Stream size : 3.90 MiB (4%)[/code]

Related torrents

Torrent NameAddedSizeSeedLeechHealth
1 Year+ - in Music176.77 MB00
1 Year+ - in Music114.08 MB12
1 Year+ - in Music169.26 MB00
1 Year+ - in Music9.91 MB15,0023,000
1 Year+ - in Music9.91 MB15,0023,000

Comments (0 Comments)




Please login or create a FREE account to post comments

Latest Searches

| Luis miguel romance | 2016 all stars | indigo la end | new R B jams | Tamil movie Marina | Deck the halls Mary higgins | now thats what call music 93 | WoodmanCastingX Candee Licious Hard My first DP with 3 men 22 08 16 rq mp4 | narnia prince caspian | Nightcap 2016 720p |