Quick Browse
Movies
TV shows
Music
Games
Applications
Anime
Other
Facebook
Advertising

Friends
Torrent Download
Movie4u
1337x.to
Torrent Downloads




Lil Wayne Ft. Static-Lollipop HD 720p Xclusive(RaHuL {tHe HuNk})[Silver RG]


    Seeders : 21      Leechers : 15

Trackers List

Tracker NameLast CheckStatusSeedersLeechers




Torrent File Content (14 files)


Lil Wayne Ft. Static-Lollipop HD 720p(RaHuL {tHe HuNk})[Silver RG]
     Lil Wayne Ft. Static-Lollipop HD 720p(RaHuL {tHe HuNk})[Silver RG].mp4 -
83.04 MB

     Lil Wayne Ft. Static-Lollipop.mp4_snapshot_02.05_[2011.06.24_14.28.01].png -
798 KB

     Lil Wayne Ft. Static-Lollipop.mp4_snapshot_01.10_[2011.06.24_14.26.44].png -
694.06 KB

     Lil Wayne Ft. Static-Lollipop.mp4_snapshot_04.50_[2011.06.24_14.32.48].png -
644.74 KB

     Lil Wayne Ft. Static-Lollipop.mp4_snapshot_02.22_[2011.06.24_14.19.44].png -
529.5 KB

     Lil Wayne Ft. Static-Lollipop HD 720p(RaHuL {tHe HuNk})[Silver RG]_s.jpg -
141 KB

     Info.txt -
6.4 KB

     Visit mE....for more uploads of mine.txt -
389 bytes

     tracked_by_h33t_com.txt -
193 bytes

     Torrent downloaded from AhaShare.com.txt -
59 bytes

     Torrent downloaded from Silvertorrents.me.txt -
53 bytes

     Torrent downloaded from Extratorrent.com.txt -
48 bytes

     Torrent Downloaded from Limetorrents.com.txt -
48 bytes

     Torrent downloaded from Demonoid.me.txt -
46 bytes



Description



http://img40.imageshack.us/img40/5677/rahulthehunkcase.png


[color=red]Description[/color]
http://i.min.us/iKxaa.gif

[color=violet]::General::[/color]
Complete name : Lil Wayne Ft. Static-Lollipop HD 720p(RaHuL {tHe HuNk})[Silver RG]\Lil Wayne Ft. Static-Lollipop HD 720p(RaHuL {tHe HuNk})[Silver RG].mp4
Format : MPEG-4
Format profile : Base Media
Codec ID : isom
File size : 83.0 MiB
Duration : 5mn 1s
Overall bit rate : 2 312 Kbps
Encoded date : UTC 2011-06-24 08:46:46
Tagged date : UTC 2011-06-24 08:46:46

http://i.min.us/iKM98.gif

[color=violet]::Video::[/color]
ID : 1
Format : AVC
Format/Info : Advanced Video Codec
Format profile : [email protected]
Format settings, CABAC : Yes
Format settings, ReFrames : 4 frames
Format settings, GOP : M=4, N=5
Codec ID : avc1
Codec ID/Info : Advanced Video Coding
Duration : 5mn 1s
Bit rate mode : Variable
Bit rate : 2 250 Kbps
Maximum bit rate : 5 907 Kbps
Width : 1 280 pixels
Height : 720 pixels
Display aspect ratio : 16:9
Frame rate mode : Constant
Frame rate : 23.976 fps
Color space : YUV
Chroma subsampling : 4:2:0
Bit depth : 8 bits
Scan type : Progressive
Bits/(Pixel*Frame) : 0.102
Stream size : 80.7 MiB (97%)
Writing library : x264 core 114 r1913 5fd3dce
Encoding settings : cabac=1 / ref=3 / deblock=1:0:0 / analyse=0x3:0x133 / me=hex / subme=5 / psy=1 / psy_rd=0.00:0.00 / mixed_ref=0 / me_range=16 / chroma_me=1 / trellis=1 / 8x8dct=1 / cqm=0 / deadzone=21,11 / fast_pskip=1 / chroma_qp_offset=0 / threads=3 / sliced_threads=0 / nr=0 / decimate=1 / interlaced=0 / constrained_intra=0 / bframes=16 / b_pyramid=2 / b_adapt=1 / b_bias=0 / direct=1 / weightb=0 / open_gop=0 / weightp=2 / keyint=250 / keyint_min=23 / scenecut=40 / intra_refresh=0 / rc_lookahead=40 / rc=abr / mbtree=1 / bitrate=2250 / ratetol=1.0 / qcomp=0.60 / qpmin=0 / qpmax=69 / qpstep=4 / ip_ratio=1.40 / aq=1:1.00
Encoded date : UTC 2011-06-24 08:46:46
Tagged date : UTC 2011-06-24 08:46:48

http://i.min.us/iPrK2.gif

[color=violet]::Audio::[/color]
ID : 2
Format : AAC
Format/Info : Advanced Audio Codec
Format profile : HE-AAC / LC
Codec ID : 40
Duration : 4mn 59s
Bit rate mode : Variable
Bit rate : 64.0 Kbps
Maximum bit rate : 77.7 Kbps
Channel(s) : 2 channels
Channel positions : Front: L R
Sampling rate : 48.0 KHz / 24.0 KHz
Compression mode : Lossy
Stream size : 2.29 MiB (3%)
Encoded date : UTC 2011-06-24 08:46:48
Tagged date : UTC 2011-06-24 08:46:48


[color=violet]:: Trackers ::[/color]
http://inferno.demonoid.me:3393/announce

http://exodus.1337x.org/announce

http://10.rarbg.com/announce

http://tracker.publicbt.com/announce

http://genesis.1337x.org:1337/announce

http://9.rarbg.com:2710/announce

http://exodus.1337x.org:1337/announce

http://pow7.com/announce

http://tracker.publicbt.com:80/announce

http://tracker.publicbt.com/announce

http://nemesis.1337x.org/announce


http://i.min.us/iONUE.gif

http://img27.imageshack.us/img27/1205/lilwayneftstaticlollipo.jpg

http://img195.imageshack.us/img195/8602/lilwayneftstaticlollipo.png

http://img233.imageshack.us/img233/8602/lilwayneftstaticlollipo.png

http://img695.imageshack.us/img695/8602/lilwayneftstaticlollipo.png

http://img845.imageshack.us/img845/8602/lilwayneftstaticlollipo.png


[color=Red]::Greetz::[/color]
rahulthehunk with kkhan ,EMAD,MXMG,BigW,AliBaloch,AllSilverRGEncoders,TorrentStateRG,1337x,ExtraTorrent,H33t,and and all other P2P Releasers

[color=Red]::Note::[/color]
Make sure its real Silver RG Release From Silver RG Account


http://i.min.us/iKZEe.png

http://i.imgur.com/1mi0I.gif

http://i.min.us/ibeG78.gif


[color=red]For Promotional Use Only... Remember to support the artists...
Anyway enjoy the Music,it is free!!!!
[/color]

Related torrents

Torrent NameAddedSizeSeedLeechHealth
Verified torrent
1 Year+ - in Music52.19 MB3516
Verified torrent
1 Year+ - in Music68.91 MB00
Verified torrent
1 Year+ - in Music46.54 MB4671
1 Year+ - in Music89.06 MB3422
Verified torrent
1 Year+ - in Music50.77 MB187

Comments (0 Comments)




Please login or create a FREE account to post comments

Latest Searches

| taylor he | new tricks s01e05 | tiffany starr sex | The Great Christmas Light Fight S03E05 | Good Behavior S01E04 720p HDTV x264 KILLERS | top 20 mp3 bollywood songs | reality teil 7 reife frauen ficken sich jung | fast furious 6 eminem feat ludacris lil wayne second chance dj bessi remix | 28 hotel rooms 720p | cento x cento trans 2016 |