Quick Browse
Movies
TV shows
Music
Games
Applications
Anime
Other
Facebook
Advertising

Friends
Torrent Download
Movie4u
1337x.to
Torrent Downloads




Limitless.2011.R5.LiNE.XViD.RoSubbed - MxM


    Seeders : 3      Leechers : 0
Hash :BB976DF09EF1627BD2406DA8F400ECA301DF3EF6
Added :1 Year+ by deemtrack in Movies
Size :1.24 GB
Stream :WATCH ONLINE @ Movie4u


Limitless.2011.R5.LiNE.XViD.RoSubbed - MxM
Free and Fast Download with Usenet 300GB+ free







Trackers List

Tracker NameLast CheckStatusSeedersLeechers




Torrent File Content (3 files)


Limitless.2011.R5.LiNE.XViD.RoSubbed - MxM
     Limitless.2011.R5.LiNE.XViD.RoSubbed - MxM.avi -
1.24 GB

     Limitless.2011.R5.LiNE.XViD.RoSubbed - MxM.srt -
82.41 KB

     MXM.nfo -
2.67 KB



Description



http://static.cinemarx.ro/stiri-cinema/wp-content/uploads/2011/03/limitless.jpg

Format : AVI
Format/Info : Audio Video Interleave
File size : 1.24 GiB
Duration : 1h 32mn
Overall bit rate : 1 914 Kbps
Writing application : VirtualDubMod 1.5.10.3 www.virtualdub-fr.org (build 2550/release)
Writing library : VirtualDubMod build 2550/release

Video
ID : 0
Format : MPEG-4 Visual
Format profile : Advanced [email protected]
Format settings, BVOP : 2
Format settings, QPel : No
Format settings, GMC : No warppoints
Format settings, Matrix : Default (MPEG)
Muxing mode : Packed bitstream
Codec ID : XVID
Codec ID/Hint : XviD
Duration : 1h 32mn
Bit rate : 1 776 Kbps
Width : 720 pixels
Height : 304 pixels
Display aspect ratio : 2.35:1
Frame rate : 25.000 fps
Color space : YUV
Chroma subsampling : 4:2:0
Bit depth : 8 bits
Scan type : Progressive
Compression mode : Lossy
Bits/(Pixel*Frame) : 0.325
Stream size : 1.15 GiB (93)
Writing library : XviD 61

Audio
ID : 1
Format : MPEG Audio
Format version : Version 1
Format profile : Layer 3
Mode : Joint stereo
Codec ID : 55
Codec ID/Hint : MP3
Duration : 1h 32mn
Bit rate mode : Constant
Bit rate : 128 Kbps
Channel(s) : 2 channels
Sampling rate : 44.1 KHz
Compression mode : Lossy
Stream size : 84.8 MiB (7)
Alignment : Split accross interleaves
Interleave, duration : 40 ms (1.00 video frame)
Interleave, preload duration : 500 ms

http://www.imdb.com/title/tt1219289/
Subtitles:[color=red][size=2]Romanian[/size][/color]

[video=http://www.youtube.com/watch?v=THE_hhk1Gzc&autoplay=1]

http://i74.photobucket.com/albums/i252/linedancer2/wijsmb3.gif

http://img396.imageshack.us/img396/4852/wearewatchingyou5jmsr0.gif

http://img689.imageshack.us/img689/8753/ivnoqwltmm3.gif

MORE INFO:
http://www.deemtrack.in/details.php?id=9213&hit=1

Related torrents

Torrent NameAddedSizeSeedLeechHealth
1 Year+ - in Movies420.35 MB00
1 Year+ - in Movies1.35 GB00
1 Year+ - in Movies1.76 GB01
1 Year+ - in Movies1.76 GB13
1 Year+ - in Movies420.35 MB215

Comments (0 Comments)




Please login or create a FREE account to post comments

Latest Searches

| o yciu na | naked and in love | Fates Warning Discography rar | sobertool | autoplay menu builder 5 1 crack | ghetto sister | Kingdom Wars 2 Undead Cometh CODEX | as karina | eset nod32 64 bit antivirus crack | Seikon no Qwaser I Complete |