Quick Browse
Movies
TV shows
Music
Games
Applications
Anime
Other
Facebook
Friends
Torrent Download
Free Movies
1337x.to
Torrent Downloads

Verified torrent Limitless 2011 720p RC BDRip XviD LiNE AC3-MEM


    Seeders : 1      Leechers : 1
Hash :B729310E3CA1C93D77B5DF61771DC3D145E49195
Added :1 Year+ by memory100Verified torrent uploader in Movies
Size :2.58 GB
Stream :Watch Full Movies Online @ Movie4u
Share :


Limitless 2011 720p RC BDRip XviD LiNE AC3-MEM
Anonymous and Direct Download 300GB+ free







Warning! Do not Download Torrents Without a VPN!
Your IP Address is .   And Location is
Your Internet Provider and Government can track your torrent Activity!  Hide your IP ADDRESS with a VPN!
We Strongly Recommend Using OneVPN’s Torrent VPN to Anonymize your Torrenting. It's Very Cheap!

Note :

Please Update (Trackers Info) Before Downloading Torrents to See Updated Seeders And Leechers for Batter Download Speed.

Trackers List

Tracker NameLast CheckStatusSeedersLeechers




Torrent File Content (9 files)


Limitless 2011 720p RC BDRip XviD LiNE AC3-MEM
     Limitless 2011 720p RC BDRip XviD LiNE AC3-MEM.avi -
2.53 GB

     sample.avi -
48.93 MB

     NW RG.nfo -
12.96 KB

     Limitless 2011 720p RC BDRip XviD LiNE AC3-MEM.nfo -
6.13 KB

     northernwarriors.net.txt -
137 bytes

     dreamthe.net.txt -
93 bytes

     sceneunderground.org.txt -
77 bytes

     Torrent downloaded from Demonoid.me.txt -
46 bytes

     Budget seedboxs.txt -
44 bytes



Description



http://img715.imageshack.us/img715/3530/limitj.jpg


IMDB:http://www.imdb.com/title/tt1219289/
Year:2011
Codec:XVID
Runtime:1:46:10
Bitrate: 3003
Resolution:1280 x 544
Frame Rate:23.976
Size:2.52 GB


General

Format : AVI
Format/Info : Audio Video Interleave
Format profile : OpenDML
File size : 2.53 GiB
Duration : 1h 44mn
Overall bit rate : 3 457 Kbps
Writing application : VirtualDubMod 1.5.10.2 (build 2542/release)
Writing library : VirtualDub build 30091/release

Video

ID : 0
Format : MPEG-4 Visual
Format profile : Advanced [email protected]
Format settings, BVOP : 1
Format settings, QPel : No
Format settings, GMC : No warppoints
Format settings, Matrix : Custom
Muxing mode : Packed bitstream
Codec ID : XVID
Codec ID/Hint : XviD
Duration : 1h 44mn
Bit rate : 3 016 Kbps
Width : 1 280 pixels
Height : 544 pixels
Display aspect ratio : 2.35:1
Frame rate : 23.976 fps
Color space : YUV
Chroma subsampling : 4:2:0
Bit depth : 8 bits
Scan type : Progressive
Compression mode : Lossy
Bits/(Pixel*Frame) : 0.181
Stream size : 2.21 GiB (87%)
Writing library : XviD 1.2.1 (UTC 2008-12-04)

Audio

ID : 1
Format : AC-3
Format/Info : Audio Coding 3
Mode extension : CM (complete main)
Codec ID : 2000
Duration : 1h 40mn
Bit rate mode : Constant
Bit rate : 448 Kbps
Channel(s) : 6 channels
Channel positions : Front: L C R, Side: L R, LFE
Sampling rate : 48.0 KHz
Bit depth : 16 bits
Compression mode : Lossy
Stream size : 322 MiB (12%)
Alignment : Aligned on interleaves
Interleave, duration : 43 ms (1.04 video frame)
Interleave, preload duration : 512 ms

Sources:
VISION THNXS!

Notes:
muxed ac3 audio to video tried my best to sync! with little luck :( take the release will leave other groups to sync it properly !

Greetz:
WBZ,VISION,CM8,RX,IMAGINE,KINGSTON100,ALBERT,NWRG,dreamthe,sceneunderground
To all p2p and scene past and present :D
Screens:
http://img19.imageshack.us/img19/7158/vlcsnap2011051913h48m27.png

http://img51.imageshack.us/img51/2582/vlcsnap2011051912h28m40.png

http://img838.imageshack.us/img838/2739/vlcsnap2011051913h49m25.png

Related torrents

Torrent NameAddedSizeSeedLeechHealth
1 Comments
2 Good
Verified torrent
1 Year+ - in Movies2.76 GB4316
1 Year+ - in Movies2.76 GB00
1 Year+ - in Movies2.76 GB11
1 Year+ - in Movies2.76 GB29
1 Year+ - in Movies3.14 GB00

Comments (0 Comments)




Please login or create a FREE account to post comments

Latest Searches

| bunny 2008 | gold 209 | Zoey Monroe Dpd Opens Up Her Holes For Two Big Black Cocks | HandsOnHardcore Layla Price | jenna foxx tease you | Blake pussy | The Devil s Candy 1080p 5 1 | latinasextapes hevc | Phillips mike | young m a selfmade |