Quick Browse
Movies
TV shows
Music
Games
Applications
Anime
Other
Facebook
Advertising

Friends
Torrent Download
Movie4u
1337x.to
Torrent Downloads




Verified torrent Lincoln 2012 DVDScr English [Accipiter] Exclusive


    Seeders : 1      Leechers : 4
Hash :32D5596BB9903728C3D87E72FC007C1522AA5786
Added :1 Year+ by souravfileVerified torrent uploader in Movies
Size :701.07 MB
Stream :WATCH ONLINE @ Movie4u


Lincoln 2012 DVDScr English [Accipiter] Exclusive
Free and Fast Download with Usenet 300GB+ free







Trackers List

Tracker NameLast CheckStatusSeedersLeechers




Torrent File Content (3 files)


Lincoln 2012 DVDScr English [Accipiter] Exclusive
     Lincoln 2012 DVDScr English [Accipiter].mkv -
701.07 MB

     Torrent Downloaded From Digtorrent.org.txt -
346 bytes

     Torrent downloaded from souravfile torrents on BTScene.eu.txt -
69 bytes



Description



http://hostpicturefree.com/images/bannerlnl.gif


Cover:

http://ia.media-imdb.com/images/M/MV5BMTQzNzczMDUyNV5BMl5BanBnXkFtZTcwNjM2ODEzOA@@._V1._SY317_CR0,0,214,317_.jpg


Release info:

[code]General
Format : Matroska
Format version : Version 2
File size : 701 MiB
Duration : 2h 29mn
Overall bit rate : 654 Kbps

Video
ID : 1
Format : MPEG-4 Visual
Format profile : Advanced [email protected]
Format settings, BVOP : Yes
Format settings, QPel : No
Format settings, GMC : No warppoints
Format settings, Matrix : Default (H.263)
Codec ID : V_MS/VFW/FOURCC / XVID
Codec ID/Hint : XviD
Duration : 2h 29mn
Bit rate : 513 Kbps
Width : 624 pixels
Height : 256 pixels
Display aspect ratio : 2.40:1
Frame rate mode : Constant
Frame rate : 23.976 fps
Color space : YUV
Chroma subsampling : 4:2:0
Bit depth : 8 bits
Scan type : Progressive
Compression mode : Lossy
Bits/(Pixel*Frame) : 0.134
Stream size : 550 MiB (78%)
Language : English
Default : Yes
Forced : No

Audio
ID : 2
Format : MPEG Audio
Format version : Version 1
Format profile : Layer 3
Mode : Joint stereo
Muxing mode : Header stripping
Codec ID : A_MPEG/L3
Codec ID/Hint : MP3
Duration : 2h 29mn
Bit rate mode : Constant
Bit rate : 128 Kbps
Channel(s) : 2 channels
Sampling rate : 48.0 KHz
Compression mode : Lossy
Stream size : 137 MiB (20%)
Language : English
Default : Yes
Forced : No



Source:
credit to original movie ripper Legend-Rg (Thanks)[/code]

IMDB Info:

[code]As the Civil War continues to rage, America's president struggles with continuing carnage on the battlefield and as he fights with many inside his own cabinet on the decision to emancipate the slaves.

Director: Steven Spielberg
Writers: Tony Kushner (screenplay), Doris Kearns Goodwin (book) (in part)
Stars: Daniel Day-Lewis, Sally Field and David Strathairn

Genres: Biography | Drama | History | War[/code]

http://www.imdb.com/title/tt0443272/

Screen Shot:

http://hostpicturefree.com/images/vlcsnaxtx.png

http://hostpicturefree.com/images/vlcsnahmh.png

http://hostpicturefree.com/images/vlcsnakkk.png

http://hostpicturefree.com/images/vlcsnaheh.png

http://hostpicturefree.com/images/vlcsnahuh.png

http://hostpicturefree.com/images/vlcsnajkj.png

Related torrents

Torrent NameAddedSizeSeedLeechHealth
Verified torrent
1 Year+ - in Movies646.42 MB12
Verified torrent
1 Year+ - in Movies448.23 MB11
1 Year+ - in Movies689.26 MB7612
Verified torrent
1 Year+ - in Movies699.27 MB10
Verified torrent
1 Year+ - in Movies445.37 MB00

Comments (0 Comments)




Please login or create a FREE account to post comments

Latest Searches

| prince la | Mosen Inferno MCB | Erotico 2000 | underground vol 16 | fictionmania | gangbang shay fox | elegidos para | 1080 | cherish the truth | GEORGE RHODES |