Quick Browse
Movies
TV shows
Music
Games
Applications
Anime
Other
Facebook
Advertising

Friends
Torrent Download
Movie4u
1337x.to
Torrent Downloads




Lo.Stravagante.Mondo.Di.Greenberg.2010.iTALiAN.720p.LD.BDRip.XviD-[TrTd_CREW].avi


    Seeders : 2      Leechers : 25

Trackers List

Tracker NameLast CheckStatusSeedersLeechers




Torrent File Content (3 files)


Lo.Stravagante.Mondo.Di.Greenberg.2010.iTALiAN.720p.LD.BDRip.XviD-[TrTd_CREW]
     Lo.Stravagante.Mondo.Di.Greenberg.2010.iTALiAN.720p.LD.BDRip.XviD-[TrTd_CREW].avi -
1.3 GB

     presentazione.rtf -
30.64 KB

     presentazione.txt -
266 bytes



Description




http://www.torrented.org/public/phpbb3/images/presenta.png


http://img189.imageshack.us/img189/9923/newprojectndr.png


http://img823.imageshack.us/img823/8127/greenbergt.png




http://www.torrented.org/public/phpbb3/images/info%20film.png



[color=red]USCITA CINEMA:[/color] 08/04/2011
[color=red]REGIA:[/color] Noah Baumbach
[color=red]SCENEGGIATURA:[/color] Noah Baumbach
[color=red]ATTORI:[/color] Ben Stiller, Greta Gerwig, Rhys Ifans, Chris Messina, Sydney Rouviere, Susan Traylor, Merritt Wever, Koby Rouviere, Emily Lacy, Mina Badie, Aaron Wrinkle


[color=red]FOTOGRAFIA:[/color] Harris Savides
[color=red]MONTAGGIO:[/color] Tim Streeto
[color=red]MUSICHE:[/color] James Murhpy
[color=red]PRODUZIONE:[/color] Scott Rudin Productions
[color=red]DISTRIBUZIONE:[/color] BIM
[color=red]PAESE:[/color] USA 2010
[color=red]GENERE:[/color] Commedia, Drammatico
[color=red]DURATA:[/color] 106 Min

[spoiler]General
Count : 214
Count of stream of this kind : 1
Kind of stream : General
StreamKindID : 0
Count of video streams : 1
Count of audio streams : 1
Video_Format_List : MPEG-4 Visual
Video_Format_WithHint_List : MPEG-4 Visual (XviD)
Codecs Video : XviD
Audio_Format_List : MPEG Audio
Audio_Format_WithHint_List : MPEG Audio (MP3)
Audio codecs : MPEG-1 Audio layer 3
Complete name : Lo.Stravagante.Mondo.Di.Greenberg.2010.iTALiAN.720p.LD.BDRip.XviD-[TrTd_CREW].avi
Folder name : Lo.Stravagante.Mondo.Di.Greenberg.2010.iTALiAN.720p.LD.BDRip.XviD-[TrTd_CREW]
File name : Lo.Stravagante.Mondo.Di.Greenberg.2010.iTALiAN.720p.LD.BDRip.XviD-[TrTd_CREW]
File extension : avi
Format : AVI
Format : AVI
Format/Info : Audio Video Interleave
Format/Extensions : avi
Interleaved : No
Codec : AVI
Codec : AVI
Codec/Info : Audio Video Interleave
Codec/Extensions : avi
File size : 1392171184
File size : 1.30 GiB
File size : 1 GiB
File size : 1.3 GiB
File size : 1.30 GiB
File size : 1.297 GiB
Duration : 6433840
Duration : 1h 47mn
Duration : 1h 47mn 13s 840ms
Duration : 1h 47mn
Duration : 01:47:13.840
Overal bit rate : 1731060
Overal bit rate : 1731 Kbps
Stream size : 7785649 / 7785649
Stream size : 7.42 MiB
Stream size : 7 MiB
Stream size : 7.4 MiB
Stream size : 7.42 MiB
Stream size : 7.425 MiB
File creation date : UTC 2011-04-11 16:30:55.335
File last modification date : UTC 2011-04-11 02:21:40.416

Video
Count : 119
Count of stream of this kind : 1
Kind of stream : Video
StreamKindID : 0
Format : MPEG-4 Visual
Format profile : Streaming [email protected]
Format settings, BVOP : No
Format settings, QPel : No
Format settings, GMC : 0
Format settings, GMC : 0 warppoint
Format settings, Matrix : Default
Codec ID : XVID
Codec ID/Hint : XviD
Codec ID/Url : http://www.xvid.org/Downloads.15.0.html
Codec : XVID
Codec : XviD
Codec/Family : MPEG-4V
Codec/Info : XviD project
Codec/Url : http://www.xvid.org/Downloads.15.0.html
Codec/CC : XVID
Codec profile : Streaming [email protected]
Codec settings, Packet bitstream : No
Codec settings, BVOP : No
Codec settings, QPel : No
Codec settings, GMC : 0
Codec settings, GMC : 0 warppoint
Codec settings, Matrix : Default
Duration : 6433840
Duration : 1h 47mn
Duration : 1h 47mn 13s 840ms
Duration : 1h 47mn
Duration : 01:47:13.840
Bit rate : 1497466
Bit rate : 1497 Kbps
Width : 1280
Width : 1280 pixels
Height : 720
Height : 720 pixels
Pixel Aspect Ratio : 1.000
Display aspect ratio : 1.778
Display aspect ratio : 16/9
Frame rate : 25.000
Frame rate : 25.000 fps
FrameCount : 160846
Resolution : 8
Resolution : 8 bits
Colorimetry : 4:2:0
Scan type : Progressive
Scan type : Progressive
Interlacement : PPF
Interlacement : Progressive
Bits/(Pixel*Frame) : 0.065
Stream size : 1204307518
Stream size : 1.12 GiB
Stream size : 1 GiB
Stream size : 1.1 GiB
Stream size : 1.12 GiB
Stream size : 1.122 GiB
Writing library : XviD0050
Writing library : XviD0050

Audio
Count : 102
Count of stream of this kind : 1
Kind of stream : Audio
StreamKindID : 0
Format : MPEG Audio
Format version : Version 1 / Layer 3
Codec ID : 55
Codec ID/Hint : MP3
Codec ID/Url : http://www.iis.fraunhofer.de/amm/index.html
Codec : MPA1L3
Codec : MPEG-1 Audio layer 3
Codec/CC : 55
Duration : 6431358
Duration : 1h 47mn
Duration : 1h 47mn 11s 358ms
Duration : 1h 47mn
Duration : 01:47:11.358
Bit rate mode : CBR
Bit rate : 224000
Bit rate : 224 Kbps
Channel(s) : 2
Channel(s) : 2 channels
Sampling rate : 48000
Sampling rate : 48.0 KHz
SamplingCount : 308705184
Resolution : 16
Resolution : 16 bits
Stream size : 180078017
Stream size : 172 MiB
Stream size : 172 MiB
Stream size : 172 MiB
Stream size : 172 MiB
Stream size : 171.7 MiB
Writing library : LAMELAME_MAJOR_VERSI


[/spoiler]

http://www.torrented.org/public/phpbb3/images/trama.png



l film racconta la storia buffa, intensa e commovente di due anime alla deriva a Los Angeles, che cercano di costruire un rapporto.

Related torrents

Torrent NameAddedSizeSeedLeechHealth
1 Year+ - in Movies1.36 GB30120
11 months ago - in Movies1.25 GB07
1 Year+ - in Movies1.25 GB12
1 Year+ - in Movies1.37 GB028
Verified torrent
1 Year+ - in Movies1.28 GB7462

Comments (0 Comments)




Please login or create a FREE account to post comments

Latest Searches

| Shameless us s01 s | opera beat | Ive Rose | Nikita Season 4 Complete 720p | kill la kill episode 3 | all about you raekwon feat estelle | Moms Lick s 1 | Czechav Amateurs Czech Couples 21 | wagner isolde | Moms Lick s 1 |