Quick Browse
Movies
TV shows
Music
Games
Applications
Anime
Other
Facebook
Advertising

Friends
Torrent Download
Movie4u
1337x.to
Torrent Downloads




Verified torrent Lonavla Bypass [2010] Marathi Xvid 1 CD VCDRip [MDG]@Mastitorrents


    Seeders : 24      Leechers : 18

Trackers List

Tracker NameLast CheckStatusSeedersLeechers




Torrent File Content (1 file)


     Lonavla Bypass [2010] - Xvid - 1 CD VCDRip - MDG Exclusive.avi -
697.21 MB



Description



[color=green][font=Georgia]Info -
Cast -
Sanjay Narvekar
Vijay Chavan
Kishore Nandolskar
Arun Kadam,
Ashwini Apte
Sakshan Kulkarni
Anjali Ujavan.

Plot -
The story of the film revolves around the tragic happenings in the lives of four friends who come from a poor background and are always together during their good and bad times. Like any other human being of their type, they too dream of winning a jackpot. All of a sudden, their dream comes true and their life takes a dramatic turn. Soon thereafter, a series of unexpected things also occur and within six months time, each one of them die one after the other, under strange circumstances. What is the real cause of such happenings ? Who is behind such deaths ? All these questions may strike your mind. But, hold on; till the release of ?Lonavala By Pass?.

Media Info -
General
Name : Lonavla Bypass
Format : AVI
Format/Info : Audio Video Interleave
Format profile : OpenDML
File size : 697 MiB
Duration : 1h 46mn
Overall bit rate : 915 Kbps
Writing application : AVI-Mux GUI 1.17.8.3


Video
ID : 0
Format : MPEG-4 Visual
Format profile : Advanced [email protected]
Format settings, BVOP : Yes
Format settings, QPel : No
Format settings, GMC : No warppoints
Format settings, Matrix : Default (H.263)
Codec ID : XVID
Codec ID/Hint : XviD
Duration : 1h 46mn
Bit rate : 848 Kbps
Width : 576 pixels
Height : 240 pixels
Display aspect ratio : 2.40:1
Frame rate : 25.000 fps
Color space : YUV
Chroma subsampling : 4:2:0
Bit depth : 8 bits
Scan type : Progressive
Bits/(Pixel*Frame) : 0.245
Stream size : 646 MiB (93%)
Writing library : XviD 1.2.1


Audio
ID : 1
Format : MPEG Audio
Format version : Version 2
Format profile : Layer 3
Mode : Joint stereo
Mode extension : MS Stereo
Codec ID : 55
Codec ID/Hint : MP3
Duration : 1h 46mn
Bit rate mode : Constant
Bit rate : 64.0 Kbps
Channel(s) : 2 channels
Sampling rate : 24.0 KHz
Stream size : 48.7 MiB (7%)
Alignment : Aligned on interleaves
Interleave, duration : 870 ms (21.74 video frames)
Interleave, preload duration : 216 ms
[/font][/color]

http://img832.imageshack.us/img832/2007/2gvmouwjpg.png

http://img257.imageshack.us/img257/6093/2k4tbpjpg.png

http://img259.imageshack.us/img259/7656/2vdso74jpg.png




Related torrents

Torrent NameAddedSizeSeedLeechHealth
Verified torrent
1 Year+ - in Movies688.36 MB3889
Verified torrent
1 Year+ - in Movies697.35 MB716
Verified torrent
1 Year+ - in Movies706.3 MB00
Verified torrent
1 Year+ - in Movies690.71 MB2021
Verified torrent
1 Year+ - in Movies704.84 MB22

Comments (0 Comments)




Please login or create a FREE account to post comments

Latest Searches

| tamilrockers multi audio | cd Is | tritonal metamorphic 2 | winning girl | heyzo 1236 | corre corre Jesse joy | Dylan Phoenix trickyspa | red rocks alt j | mariachis | House of 1000 Doors Serpent Flame Collectors Edition exe |