Quick Browse
Movies
TV shows
Music
Games
Applications
Anime
Other
Facebook
Advertising

Friends
Torrent Download
Movie4u
1337x.to
Torrent Downloads




Love.Happens.DVDRip.XviD-NeDiVx


    Seeders : 0      Leechers : 0
Hash :D73B1072206FCD2CA071470F3A2FA5277E3B125E
Added :1 Year+ in Movies
Size :1.39 GB
Stream :WATCH ONLINE @ Movie4u


Love.Happens.DVDRip.XviD-NeDiVx
Free and Fast Download with Usenet 300GB+ free







Trackers List

Tracker NameLast CheckStatusSeedersLeechers




Torrent File Content (4 files)


Love Happens DVD www.IWANNADOWNLOAD.com
    Subs
          nedivx-lovehappens-subs.rar -
2.51 MB

          nedivx-lovehappens-subs.sfv -
38 bytes

     Love Happens DVD www.IWANNADOWNLOAD.com.avi -
1.37 GB

     nedivx-lovehappens-sample.avi -
21.97 MB



Description



Love Happens (2009)
http://www.imdb.com/title/tt0899106/

Video Sample:
http://www.movshare.net/video/meekk3gbrt6l8

Filename:
Love.Happens.DVDRip.XviD-NeDiVx

Format/Info : Audio Video Interleave
File size : 1.37 GiB
Duration : 1h 49mn
Overall bit rate : 1 793 Kbps
Writing application : VirtualDubMod 1.5.10.3 | www.virtualdub-fr.org || (build 2550/release)
Writing library : Boilsoft AVI tool build 1/release

Video
ID : 0
Format : MPEG-4 Visual
Format profile : [email protected]
Format settings, BVOP : Yes
Format settings, QPel : No
Format settings, GMC : No warppoints
Format settings, Matrix : Default (H.263)
Muxing mode : Packed bitstream
Codec ID : XVID
Codec ID/Hint : XviD
Duration : 1h 49mn
Bit rate : 1 336 Kbps
Width : 624 pixels
Height : 336 pixels
Display aspect ratio : 1.857
Frame rate : 23.976 fps
Resolution : 24 bits
Colorimetry : 4:2:0
Scan type : Progressive
Bits/(Pixel*Frame) : 0.266
Stream size : 1.02 GiB (74%)
Writing library : XviD 1.3.0.dev55

Audio
ID : 1
Format : AC-3
Format/Info : Audio Coding 3
Codec ID : 2000
Duration : 1h 49mn
Bit rate mode : Constant
Bit rate : 448 Kbps
Channel(s) : 6 channels
Channel positions : Front: L C R, Surround: L R, LFE
Sampling rate : 48.0 KHz
Stream size : 349 MiB (25%)
Alignment : Split accross interleaves
Interleave, duration : 42 ms (1.00 video frame)
Interleave, preload duration : 500 ms

Related torrents

Torrent NameAddedSizeSeedLeechHealth
1 Year+ - in Movies1.38 GB368593
1 Year+ - in Movies1.38 GB75108
1 Year+ - in Movies1.37 GB2540
1 Year+ - in Movies1.37 GB1627
1 Year+ - in Movies1.37 GB2422
1 Year+ - in Movies1.4 GB87314

Comments (0 Comments)




Please login or create a FREE account to post comments

Latest Searches

| indonesian tits | S beam | Top 40 Music Videos | cock crazy teens love huge cocks | tangled hindi 2012 | hits of the 8 2016 | new game deadfish | Enemy Frozen | Photoplay jenna | 3ds max 2016 plugin |