Quick Browse
Movies
TV shows
Music
Games
Applications
Anime
Other

Advertising

Friends
Torrents.me
Torrent Download
Free Movies
1337x
RARBG
Torrent Downloads

Love.Happens.DVDRip.XviD-NeDiVx


    Seeders : 0      Leechers : 0

Hash :D73B1072206FCD2CA071470F3A2FA5277E3B125E
Added :1 Year+ in Movies
Size :1.39 GB
Stream :Watch Online Full Movie @ Movie4u
Share :


Love.Happens.DVDRip.XviD-NeDiVx
Download FREE And Anonymously







Warning! Do not Download Torrents Without a VPN!
Your IP Address is .   And Location is
Your Internet Provider and Government can track your torrent Activity!  Hide your IP ADDRESS with a VPN!
We Strongly Recommend Using SpyOFF Torrent VPN to Anonymize your Torrenting. It's FREE for 15 Days!

Note :

Please Update (Trackers Info) Before Downloading Torrents to See Updated Seeders And Leechers for Batter Download Speed.

Trackers List

Tracker NameLast CheckStatusSeedersLeechers




Torrent File Content (4 files)


Love Happens DVD www.IWANNADOWNLOAD.com
    Subs
          nedivx-lovehappens-subs.rar -
2.51 MB

          nedivx-lovehappens-subs.sfv -
38 bytes

     Love Happens DVD www.IWANNADOWNLOAD.com.avi -
1.37 GB

     nedivx-lovehappens-sample.avi -
21.97 MB



Description



Love Happens (2009)
http://www.imdb.com/title/tt0899106/

Video Sample:
http://www.movshare.net/video/meekk3gbrt6l8

Filename:
Love.Happens.DVDRip.XviD-NeDiVx

Format/Info : Audio Video Interleave
File size : 1.37 GiB
Duration : 1h 49mn
Overall bit rate : 1 793 Kbps
Writing application : VirtualDubMod 1.5.10.3 | www.virtualdub-fr.org || (build 2550/release)
Writing library : Boilsoft AVI tool build 1/release

Video
ID : 0
Format : MPEG-4 Visual
Format profile : [email protected]
Format settings, BVOP : Yes
Format settings, QPel : No
Format settings, GMC : No warppoints
Format settings, Matrix : Default (H.263)
Muxing mode : Packed bitstream
Codec ID : XVID
Codec ID/Hint : XviD
Duration : 1h 49mn
Bit rate : 1 336 Kbps
Width : 624 pixels
Height : 336 pixels
Display aspect ratio : 1.857
Frame rate : 23.976 fps
Resolution : 24 bits
Colorimetry : 4:2:0
Scan type : Progressive
Bits/(Pixel*Frame) : 0.266
Stream size : 1.02 GiB (74%)
Writing library : XviD 1.3.0.dev55

Audio
ID : 1
Format : AC-3
Format/Info : Audio Coding 3
Codec ID : 2000
Duration : 1h 49mn
Bit rate mode : Constant
Bit rate : 448 Kbps
Channel(s) : 6 channels
Channel positions : Front: L C R, Surround: L R, LFE
Sampling rate : 48.0 KHz
Stream size : 349 MiB (25%)
Alignment : Split accross interleaves
Interleave, duration : 42 ms (1.00 video frame)
Interleave, preload duration : 500 ms

Related torrents

Torrent NameAddedSizeSeedLeechHealth
1 Year+ - in Movies1.38 GB01
1 Year+ - in Movies1.38 GB75108
1 Year+ - in Movies1.37 GB2540
1 Year+ - in Movies1.37 GB1627
1 Year+ - in Movies1.37 GB2422
1 Year+ - in Movies1.4 GB87314

Note :

Feel free to post any comments about this torrent, including links to Subtitle, samples, screenshots, or any other relevant information. Please Dont Download anything from Comments, And Dont Post Links to Streaming Sites like Fmovies, Xmovies8, 123Movies, GoMovies, CMovieshd, Solarmovie, Watchfree, Putlockers, GoStream, m4ufree etc.

Comments (0 Comments)




Please login or create a FREE account to post comments

Latest Searches

| HELL THE GOLDEN ARMY | representin remix ludacris feat r kelly fabolous | invincible tpbs | Raven Redmond | latoya love in | psa x265 1080p badlands | pascalssubsluts sienna | p90x3 elite block | lynda skype | The Heavens May Fall |