Quick Browse
Movies
TV shows
Music
Games
Applications
Anime
Other
Facebook
Advertising

Friends
Torrent Download
Movie4u
1337x.to
Torrent Downloads




Lulu Santos - Programa[EacFlacCue](TntVillage)


    Seeders : 7      Leechers : 3
Hash :1C77DB0048B23F16E2BB1FAB56B69F0EFAD6A41A
Added :1 Year+ by leoneneroVerified torrent uploader in Music - Music
Size :305.55 MB
Stream :WATCH ONLINE @ Movie4u


Lulu Santos - Programa[EacFlacCue](TntVillage)
Free and Fast Download with Usenet 300GB+ free







Trackers List

Tracker NameLast CheckStatusSeedersLeechers




Torrent File Content (16 files)


Lulu S4nt0s - Pr0gr4m4
     00 - 4m3m.flac -
25.34 MB

     01 - T3mp0 r34l.flac -
23.34 MB

     02 - F1gur4t1v4.flac -
19.82 MB

     03 - A m3ns4g3m.flac -
24.16 MB

     04 - T0d0 un1v3rs0.flac -
23.56 MB

     05 - S4lt0 f1n0.flac -
23.92 MB

     06 - W4lkp30pl3.flac -
36.36 MB

     07 - C0mp4ix40.flac -
32.34 MB

     08 - Luc4.flac -
18.48 MB

     09 - 3r0s e t4n4t0s.flac -
14.02 MB

     09 - D0 0utr0 mund0.flac -
22.59 MB

     10 - 4 do 5.flac -
24.33 MB

     11 - 4 do 5 (sub dub do bi & d ba).flac -
17.24 MB

     folder.jpg -
35.85 KB

     Lulu S4nt0s - Pr0gr4m4.Cue.cue -
1.51 KB

     Lulu S4nt0s - Pr0gr4m4.log -
10.93 KB



Description




http://img198.imageshack.us/img198/2434/progettocover.jpg


http://img641.imageshack.us/img641/7831/353732141cdlulusantosr1.jpg


http://img708.imageshack.us/img708/5862/liobw.jpg


Titolo: Programa

Artista: Lulu Santos

Genere: Rock pop brasiliano

Data di uscita: 21 marzo 2002

Casa discografica: Bmg Brasil

Band:
Lulu Santos Voz, guitarra e slide
André Rodrigues Baixo
Alex de Souza Harmonium e timpano
Armado Marçal Guiro e percussão
Eber Marcos dopler
Fabio Fonseca Piano Rodhes, pc e sax tenor
Christiaan Oygen Bateria e tubular bell

Participação Especial:Paralamas do Sucesso

Durata: 43:36

http://img842.imageshack.us/img842/2360/valutazione.gif

http://img98.imageshack.us/img98/9113/progettotracklist.jpg


01. DO OUTRO MUNDO (3:10)
02. AMÉM (3:34)
03. TEMPO REAL (3:34)
04. FIGURATIVA (2:52)
05. A MENSAGEM (3:45)
06. TODO UNIVERSO (3:16)
07. SALTO FINO (3:47)
08. WALKPEOPLE (5:31)
09. COMPAIXÃO (4:40)
10. LUCA (3:16)
11. ÉROS E TÁNATOS (2:09)
12. 4 DO 5 (Para Herbert)(3:45)
13. 4 DO 5 (Sub Dub Do Be & Do Ba)(2:50)

http://img210.imageshack.us/img210/734/progettorecensione.jpg


Lulu torna al suo stile anni `80, un pop-rock scabro e di forte presa commerciale, abbandonando le velleità `dance` che rendevano ibride e stimolanti le sue proposte più recenti, scelta che peraltro già emergeva nel precedente e citato album `ao vivo`. Così, tra alti e bassi, l`ascoltatore è coinvolto in una specie di viaggio nel tempo e avvolto da riff spudoratamente santosiani fin dall`apertura con `Outro Mundo`, senza che si aggiunga qualcosa di davvero nuovo all`universo sonoro dell`artista. La fida chitarra elettrica è sempre in primo piano, mentre la voce profonda e raschiante di Lulu ammalia come al solito, distendendosi su grooves spesso funkeggianti. Del resto, l`album presenta parecchi episodi piacevoli, che vanno ricordati: `A mensagem` è una specie di hip-hop lento e suingante che omaggia Gabriel o Pensador, `Walkpeople` una quasi-bossa scritta in parceria con Marcos Valle e Ed Motta, `Eros e Tanatos` una marchinha ironica e scattante. Anche la tanto attesa `4 do 5` e la sua reprise, con il già citato Vianna, offre motivi di interesse, uno strumentale rockeiro puro e tirato che appunto strizza l`occhio ai decenni passati.

http://img121.imageshack.us/img121/5530/progettodescrizione.jpg


http://img31.imageshack.us/img31/8179/32751234817a008e8033.gif


Lulu Santos, nome d'arte di Luiz Maurício Pragana dos Santos ( Rio de Janeiro , 4 maggio 1953) è un cantante e chitarrista brasiliano, considerato uno dei grandi nomi del rock internazionale. La sua prima banda si chiamava Vimana, all'epoca suonavano musica Punk, scioltosi intraprese una carriera solista che ha portato ad innumerevoli successi: “Toda forma de amor” “Um certo alguem”, “Condiçao”, “Como uma onda” e tantissime altre canzoni che più che un repertorio formano una imperdibile compilation ai primi posti della classifica, da sempre.

http://img713.imageshack.us/img713/7143/progettodatitecnici.jpg


Exact Audio Copy V1.0 beta 1 from 15. November 2010

EAC extraction logfile from 29. September 2011, 16:41

Lulu Santos / Programa

Used drive : HL-DT-STDVDRAM GSA-T40N Adapter: 0 ID: 0

Read mode : Secure
Utilize accurate stream : Yes
Defeat audio cache : No
Make use of C2 pointers : Yes

Read offset correction : 667
Overread into Lead-In and Lead-Out : No
Fill up missing offset samples with silence : Yes
Delete leading and trailing silent blocks : No
Null samples used in CRC calculations : No
Used interface : Native Win32 interface for Win NT & 2000
Gap handling : Not detected, thus appended to previous track

Used output format : User Defined Encoder
Selected bitrate : 768 kBit/s
Quality : High
Add ID3 tag : No
Command line compressor : c:\Users\leomarco\Contacts\Desktop\Exact Audio Copy\FLAC\FLAC.EXE
Additional command line options : -6 -V -T "ARTIST=%a" -T "TITLE=%t" -T "ALBUM=%g" -T "DATE=%y" -T "TRACKNUMBER=%n" -T "GENRE=%m" -T "COMMENT=%e" %j--picture="%i"%j %s -o %d


TOC of the extracted CD

Track | Start | Length | Start sector | End sector
---------------------------------------------------------
1 | 0:00.00 | 3:11.59 | 0 | 14383
2 | 3:11.59 | 3:34.72 | 14384 | 30505
3 | 6:46.56 | 3:36.13 | 30506 | 46718
4 | 10:22.69 | 2:53.37 | 46719 | 59730
5 | 13:16.31 | 3:46.30 | 59731 | 76710
6 | 17:02.61 | 3:17.33 | 76711 | 91518
7 | 20:20.19 | 3:47.51 | 91519 | 108594
8 | 24:07.70 | 5:32.37 | 108595 | 133531
9 | 29:40.32 | 4:42.15 | 133532 | 154696
10 | 34:22.47 | 3:17.35 | 154697 | 169506
11 | 37:40.07 | 2:10.70 | 169507 | 179326
12 | 39:51.02 | 3:45.41 | 179327 | 196242
13 | 43:36.43 | 2:50.14 | 196243 | 209006


Track 1

Filename C:\Users\leomarco\Contacts\Desktop\LULU\Nuova cartella\09 - Do outro mundo.wav

Peak level 97.8 %
Extraction speed 8.5 X
Track quality 100.0 %
Test CRC 5A4A831A
Copy CRC 5A4A831A
Copy OK

Track 2

Filename C:\Users\leomarco\Contacts\Desktop\LULU\Nuova cartella\00 - Amém.wav

Peak level 98.2 %
Extraction speed 9.4 X
Track quality 100.0 %
Test CRC CB6E7DF3
Copy CRC CB6E7DF3
Copy OK

Track 3

Filename C:\Users\leomarco\Contacts\Desktop\LULU\Nuova cartella\01 - Tempo real.wav

Peak level 97.3 %
Extraction speed 10.9 X
Track quality 100.0 %
Test CRC 2DE5598F
Copy CRC 2DE5598F
Copy OK

Track 4

Filename C:\Users\leomarco\Contacts\Desktop\LULU\Nuova cartella\02 - Figurativa.wav

Peak level 96.2 %
Extraction speed 11.5 X
Track quality 100.0 %
Test CRC F631AC61
Copy CRC F631AC61
Copy OK

Track 5

Filename C:\Users\leomarco\Contacts\Desktop\LULU\Nuova cartella\03 - A mensagem.wav

Peak level 98.2 %
Extraction speed 12.2 X
Track quality 100.0 %
Test CRC DF485D3A
Copy CRC DF485D3A
Copy OK

Track 6

Filename C:\Users\leomarco\Contacts\Desktop\LULU\Nuova cartella\04 - Todo universo.wav

Peak level 98.8 %
Extraction speed 12.0 X
Track quality 100.0 %
Test CRC 44B32777
Copy CRC 44B32777
Copy OK

Track 7

Filename C:\Users\leomarco\Contacts\Desktop\LULU\Nuova cartella\05 - Salto fino.wav

Peak level 98.8 %
Extraction speed 13.5 X
Track quality 100.0 %
Test CRC 74B0DDDF
Copy CRC 74B0DDDF
Copy OK

Track 8

Filename C:\Users\leomarco\Contacts\Desktop\LULU\Nuova cartella\06 - Walkpeople®.wav

Peak level 98.2 %
Extraction speed 14.4 X
Track quality 100.0 %
Test CRC 74ABDFDF
Copy CRC 74ABDFDF
Copy OK

Track 9

Filename C:\Users\leomarco\Contacts\Desktop\LULU\Nuova cartella\07 - Compaixão.wav

Peak level 96.4 %
Extraction speed 15.2 X
Track quality 100.0 %
Test CRC A89002F7
Copy CRC A89002F7
Copy OK

Track 10

Filename C:\Users\leomarco\Contacts\Desktop\LULU\Nuova cartella\08 - Luca.wav

Peak level 98.2 %
Extraction speed 14.6 X
Track quality 100.0 %
Test CRC 7BEE1EF3
Copy CRC 7BEE1EF3
Copy OK

Track 11

Filename C:\Users\leomarco\Contacts\Desktop\LULU\Nuova cartella\09 - Éros e tánatos.wav

Peak level 97.1 %
Extraction speed 14.3 X
Track quality 100.0 %
Test CRC 2D612799
Copy CRC 2D612799
Copy OK

Track 12

Filename C:\Users\leomarco\Contacts\Desktop\LULU\Nuova cartella\10 - 4 do 5.wav

Peak level 98.8 %
Extraction speed 15.5 X
Track quality 100.0 %
Test CRC 03213317
Copy CRC 03213317
Copy OK

Track 13

Filename C:\Users\leomarco\Contacts\Desktop\LULU\Nuova cartella\11 - 4 do 5 (sub dub do bi & d ba).wav

Peak level 98.8 %
Extraction speed 15.5 X
Track quality 100.0 %
Test CRC BD366577
Copy CRC BD366577
Copy OK


No errors occurred

End of status report

==== Log checksum C8BECD0D9002630AC829046B60E92B72C455C2D989E1C53F29CAC1D0115F9B9B ====

Per i primi 10: 24 su 24:80/90 Kb/s

Related torrents

Torrent NameAddedSizeSeedLeechHealth
1 Year+ - in Music84.92 MB00
1 Year+ - in Music57.23 MB00
1 Year+ - in Other103.55 MB00
1 Year+ - in Music1.37 GB00
1 Year+ - in Music59.27 MB00

Comments (0 Comments)




Please login or create a FREE account to post comments

Latest Searches

| clips4sale taboo heat cory chase mother has a secret sd | Thinking with Type A Critical Guide | plan ill manors | Victoria Banxxx and her 40 inch ass | Bigg Boss 2016 720p WEB HD X264 S10 E49 | Living Legend B G | K Young Something Different 2012 | Love Island 2015 | Planet Earth II Part 5 Grasslands | Nubiles Vivien |