Quick Browse
Movies
TV shows
Music
Games
Applications
Anime
Other

Donate and Support

Friends
Torrents.me
Torrent Download
Free Movies
1337x
RARBG
Torrent Downloads

Verified torrent Luster 2011 BRRip Xvid AC3-UnKnOwN


    Seeders : 1      Leechers : 0
Hash :476E3B134CA06D724612135D0265252EF9AEBC36
Added :1 Year+ by ChrisAkselVerified torrent uploader in Movies
Size :999.77 MB
Stream :Watch Full Movies Online @ Movie4u
Share :


Luster 2011 BRRip Xvid AC3-UnKnOwN
Anonymous and free Direct Download







Warning! Do not Download Torrents Without a VPN!
Your IP Address is .   And Location is
Your Internet Provider and Government can track your torrent Activity!  Hide your IP ADDRESS with a VPN!
We Strongly Recommend Using SpyOFF Torrent VPN to Anonymize your Torrenting. It's FREE For 15 Days!

Note :

Please Update (Trackers Info) Before Downloading Torrents to See Updated Seeders And Leechers for Batter Download Speed.

Trackers List

Tracker NameLast CheckStatusSeedersLeechers




Torrent File Content (3 files)


Luster.2011.BRRip.Xvid.AC3-UnKnOwN
     lusterdaszweiteichbild1.jpg -
106.21 KB

     lusterUnKnOwN.avi -
999.66 MB

     UnKnOwN.nfo -
6.92 KB



Description



Encoded By .......:UnKnOwN Release Date ......... 2011
Runtime ..........:1:25 Source ......... Always UnKnOWn
IMDb URL ..........http://www.imdb.com/title/tt1351186/ File Type ......... Single AVI
Language .........:English PS3 Compatible ....... Get a XBOX
File Size ........:1.00gb Genre ......... Horror/Thriller



Video
ID : 0
Format : MPEG-4 Visual
Format profile : Advanced [email protected]
Format settings, BVOP : Yes
Format settings, QPel : No
Format settings, GMC : No warppoints
Format settings, Matrix : Custom
Codec ID : XVID
Codec ID/Hint : XviD
Duration : 1h 25mn
Bit rate : 1 244 Kbps
Width : 720 pixels
Height : 304 pixels
Display aspect ratio : 2.35:1
Frame rate : 23.976 fps
Color space : YUV
Chroma subsampling : 4:2:0
Bit depth : 8 bits
Scan type : Progressive
Bits/(Pixel*Frame) : 0.237
Stream size : 760 MiB (76%)
Writing library : XviD 1.2.1 (UTC 2008-12-04)

Audio
ID : 1
Format : AC-3
Format/Info : Audio Coding 3
Mode extension : CM (complete main)
Codec ID : 2000
Duration : 1h 25mn
Bit rate mode : Constant
Bit rate : 384 Kbps
Channel(s) : 6 channels
Channel positions : Front: L C R, Side: L R, LFE
Sampling rate : 48.0 KHz
Bit depth : 16 bits
Stream size : 234 MiB (23%)
Alignment : Aligned on interleaves
Interleave, duration : 42 ms (1.00 video frame)
Interleave, preload duration : 512 ms


SYSPNOSIS
Thomas Luster is a troubled businessman who tries to make sense of a life being driven out-of-control by a force closer to home than he first realizes.
When he discovers that the man working against him is another side of his own personality he is forced to fight back against his manipulative
alter-ego as murder, madness and mayhem combine to take Luster on the most bizarre and terrifying ride of his life.

Related torrents

Torrent NameAddedSizeSeedLeechHealth
1 Year+ - in Movies999.66 MB114
1 Year+ - in Movies666.25 MB00
1 Year+ - in Movies910.8 MB3924
1 Year+ - in Movies1.38 GB00
1 Year+ - in Movies1.38 GB01

Comments (0 Comments)




Please login or create a FREE account to post comments

Latest Searches

| 18 years old virgin asian | chris brown itunes F A M E | Dancing With The Stars US s25e02 HDTV | on a weave | Changing Faces G H T T O U T | 134 czech massage | 64 game pc | Batman V Superman Dawn of Justice 2016 NEW HD TS READNFO x264 | hellraiser 1080p bloodline | out of the box jennifer |