Quick Browse
Movies
TV shows
Music
Games
Applications
Anime
Other

Donate and Support

Friends
Torrents.me
Torrent Download
Free Movies
1337x
RARBG
Torrent Downloads

MTV Roadies 9 - Delhi Audition [Ep 1] [Uncensored] by !!!---greatgambler---!!!


    Seeders : 1      Leechers : 0
Hash :44DED08369E4E052678619A0E9EDAE54C6672D08
Added :1 Year+ by greatgambler in TV shows
Size :437.06 MB
Stream :Watch Full Movies Online @ Movie4u
Share :








Warning! Do not Download Torrents Without a VPN!
Your IP Address is .   And Location is
Your Internet Provider and Government can track your torrent Activity!  Hide your IP ADDRESS with a VPN!
We Strongly Recommend Using SpyOFF Torrent VPN to Anonymize your Torrenting. It's FREE For 15 Days!

Note :

Please Update (Trackers Info) Before Downloading Torrents to See Updated Seeders And Leechers for Batter Download Speed.

Trackers List

Tracker NameLast CheckStatusSeedersLeechers




Torrent File Content (1 file)


     MTV Roadies 9 - Delhi Audition [Ep 1] [Uncensored] by !!!---greatgambler---!!!.avi -
437.06 MB



Description



http://img15.imageshack.us/img15/8163/greatgambler.jpg





http://img819.imageshack.us/img819/5598/roadies1.jpg




MTV Roadies 9 : Everything or Nothing is the ninth season of MTV Roadies, a reality television show aired on MTV India . The auditions started on 16 September from Pune following with Audition in Kolkata , Delhi, Chandhigarh and Hyderabad. Part of the season will take place in United States of America. The show started airing on MTV India from 7th January 2012 and every new episode airs on Saturdays at 7 P.M. IST.

http://img18.imageshack.us/img18/6966/infoum.png


General

Format : AVI
Format/Info : Audio Video Interleave
File size : 437 MiB
Duration : 1h 7mn
Overall bit rate : 906 Kbps
Writing application : MEncoder SVN-r30881(20100311-gcc4.3.3)
Writing library : MPlayer

Video
ID : 0
Format : MPEG-4 Visual
Format profile : Advanced [email protected]
Format settings, BVOP : 2
Format settings, QPel : No
Format settings, GMC : No warppoints
Format settings, Matrix : Default (H.263)
Codec ID : XVID
Codec ID/Hint : XviD
Duration : 1h 7mn
Bit rate : 766 Kbps
Width : 618 pixels
Height : 464 pixels
Display aspect ratio : 4:3
Frame rate : 25.000 fps
Color space : YUV
Chroma subsampling : 4:2:0
Bit depth : 8 bits
Scan type : Progressive
Compression mode : Lossy
Bits/(Pixel*Frame) : 0.107
Stream size : 369 MiB (85%)
Writing library : XviD 1.2.1 (UTC 2008-12-04)

Audio
ID : 1
Format : MPEG Audio
Format version : Version 1
Format profile : Layer 3
Mode : Joint stereo
Mode extension : MS Stereo
Codec ID : 55
Codec ID/Hint : MP3
Duration : 1h 7mn
Bit rate mode : Constant
Bit rate : 128 Kbps
Channel(s) : 2 channels
Sampling rate : 44.1 KHz
Compression mode : Lossy
Delay relative to video : 40ms
Stream size : 61.7 MiB (14%)
Alignment : Aligned on interleaves
Interleave, duration : 26 ms (0.65 video frame)
Interleave, preload duration : 522 ms
Writing library : LAME3.98
Language : Hindi



http://img231.imageshack.us/img231/3671/screenshoots.png



http://img853.imageshack.us/img853/6082/vlcsnap2012011719h54m48.png



http://img710.imageshack.us/img710/599/vlcsnap2012011719h56m14.png



http://img259.imageshack.us/img259/5493/vlcsnap2012011719h56m32.png



http://img543.imageshack.us/img543/1448/vlcsnap2012011719h57m57.png



http://img850.imageshack.us/img850/5056/vlcsnap2012011719h58m15.png



http://img38.imageshack.us/img38/2510/vlcsnap2012011719h58m33.png

Related torrents

Torrent NameAddedSizeSeedLeechHealth
1 Year+ - in TV shows390.7 MB00
1 Year+ - in TV shows318.88 MB10
1 Year+ - in TV shows266.76 MB15
1 Year+ - in TV shows324.49 MB00
1 Year+ - in TV shows332.22 MB11

Comments (0 Comments)




Please login or create a FREE account to post comments

Latest Searches

| c niles | deception exposed | goyte used to know | you got issue | wrecked S01E02 LOL | austin williams | the dark foxy | transformer the a | Future Pluto 3 D | Michael Jackson videos |