Quick Browse
Movies
TV shows
Music
Games
Applications
Anime
Other
Facebook
Friends
Torrent Download
Free Movies
1337x.to
Torrent Downloads

MTV Roadies 9 - Delhi Auditions [Ep 2] [Uncensored] by !!!---greatgambler---!!!


    Seeders : 0      Leechers : 0

Warning! Do not Download Torrents Without a VPN!
Your IP Address is .   And Location is
Your Internet Provider and Government can track your torrent Activity!  Hide your IP ADDRESS with a VPN!
We Strongly Recommend Using SpyOFF Torrent VPN to Anonymize your Torrenting. It's FREE For 15 Days!

Note :

Please Update (Trackers Info) Before Downloading Torrents to See Updated Seeders And Leechers for Batter Download Speed.

Trackers List

Tracker NameLast CheckStatusSeedersLeechers




Torrent File Content (1 file)


     MTV Roadies 9 - Delhi Auditions [Ep 2] [Uncensored] by !!!---greatgambler---!!!.avi -
390.7 MB



Description



http://img15.imageshack.us/img15/8163/greatgambler.jpg


http://img819.imageshack.us/img819/5598/roadies1.jpg



MTV Roadies 9 : Everything or Nothing is the ninth season of MTV Roadies, a reality television show aired on MTV India . The auditions started on 16 September from Pune following with Audition in Kolkata , Delhi, Chandhigarh and Hyderabad. Part of the season will take place in United States of America. The show started airing on MTV India from 7th January 2012 and every new episode airs on Saturdays at 7 P.M. IST.


http://img18.imageshack.us/img18/6966/infoum.png



General

Format : AVI
Format/Info : Audio Video Interleave
File size : 391 MiB
Duration : 1h 2mn
Overall bit rate : 874 Kbps
Writing application : MEncoder SVN-r30881(20100311-gcc4.3.3)
Writing library : MPlayer


Video

ID : 0
Format : MPEG-4 Visual
Format profile : Advanced [email protected]
Format settings, BVOP : 2
Format settings, QPel : No
Format settings, GMC : No warppoints
Format settings, Matrix : Default (H.263)
Codec ID : XVID
Codec ID/Hint : XviD
Duration : 1h 2mn
Bit rate : 766 Kbps
Width : 516 pixels
Height : 386 pixels
Display aspect ratio : 4:3
Frame rate : 25.000 fps
Color space : YUV
Chroma subsampling : 4:2:0
Bit depth : 8 bits
Scan type : Progressive
Compression mode : Lossy
Bits/(Pixel*Frame) : 0.154
Stream size : 342 MiB (88%)
Writing library : XviD 1.2.1 (UTC 2008-12-04)


Audio

ID : 1
Format : MPEG Audio
Format version : Version 1
Format profile : Layer 3
Mode : Joint stereo
Mode extension : MS Stereo
Codec ID : 55
Codec ID/Hint : MP3
Duration : 1h 2mn
Bit rate mode : Constant
Bit rate : 96.0 Kbps
Channel(s) : 2 channels
Sampling rate : 44.1 KHz
Compression mode : Lossy
Delay relative to video : 40ms
Stream size : 42.9 MiB (11%)
Alignment : Aligned on interleaves
Interleave, duration : 26 ms (0.65 video frame)
Interleave, preload duration : 522 ms
Writing library : LAME3.98
Language : Hindi



http://img231.imageshack.us/img231/3671/screenshoots.png


http://img254.imageshack.us/img254/8646/vlcsnap2012011820h03m10.png


http://img832.imageshack.us/img832/6756/vlcsnap2012011820h03m45.png


http://img811.imageshack.us/img811/8141/vlcsnap2012011820h04m16.png


http://img513.imageshack.us/img513/6543/vlcsnap2012011820h04m34.png


http://img507.imageshack.us/img507/8300/vlcsnap2012011820h04m48.png


http://img641.imageshack.us/img641/6735/vlcsnap2012011820h06m40.png


http://img252.imageshack.us/img252/4656/vlcsnap2012011820h06m57.png


http://img560.imageshack.us/img560/73/vlcsnap2012011820h07m10.png

Related torrents

Torrent NameAddedSizeSeedLeechHealth
1 Year+ - in TV shows437.06 MB10
1 Year+ - in TV shows318.88 MB10
1 Year+ - in TV shows266.76 MB15
1 Year+ - in TV shows332.22 MB11
1 Year+ - in TV shows324.49 MB00

Comments (0 Comments)




Please login or create a FREE account to post comments

Latest Searches

| The No 1 Ladies Detective Agency | JAVA The Ultimate Collection iP2P | one pinter | ibiza deep house summer mix | king of fighters xiv steam | Phat Ass Hydraulics | La Era De Hielo 1 Espanol | Silicon Valley S02E02 SPANISH ESPANOL HDTV XviD NEWPCT | t pain make that shit make | Lamborghini |