Quick Browse
Movies
TV shows
Music
Games
Applications
Anime
Other
Facebook
Advertising

Friends
Torrent Download
Movie4u
1337x.to
Torrent Downloads




MTV Roadies 9 - Pune Auditions [Ep 3] [Uncensored] by !!!---greatgambler---!!!


    Seeders : 1      Leechers : 5

Trackers List

Tracker NameLast CheckStatusSeedersLeechers




Torrent File Content (1 file)


     MTV Roadies 9 - Pune Auditions [Ep 3] [Uncensored] by !!!---greatgambler---!!!.avi -
266.76 MB



Description



http://img15.imageshack.us/img15/8163/greatgambler.jpg





http://img819.imageshack.us/img819/5598/roadies1.jpg




[size=4]MTV Roadies 9 : Everything or Nothing is the ninth season of MTV Roadies, a reality television show aired on MTV India . The auditions started on 16 September from Pune following with Audition in Kolkata , Delhi, Chandhigarh and Hyderabad. Part of the season will take place in United States of America. The show started airing on MTV India from 7th January 2012 and every new episode airs on Saturdays at 7 P.M. IST.[/size]


http://img18.imageshack.us/img18/6966/infoum.png



General

Format : AVI
Format/Info : Audio Video Interleave
File size : 267 MiB
Duration : 42mn 42s
Overall bit rate : 873 Kbps
Movie name : Roadies 9 - Pune Auditions [1] [Uncensored] by !!!---greatgambler---!!!
Encoded by : !!!---greatgambler---!!!
Genre : Reality Show
Writing application : MEncoder
Original source form/Name : Television
ILGU : http://img15.imageshack.us/img15/8163/greatgambler.jpg


Video

ID : 0
Format : MPEG-4 Visual
Format profile : Advanced [email protected]
Format settings, BVOP : 2
Format settings, QPel : No
Format settings, GMC : No warppoints
Format settings, Matrix : Default (H.263)
Codec ID : XVID
Codec ID/Hint : XviD
Duration : 42mn 42s
Bit rate : 765 Kbps
Width : 600 pixels
Height : 450 pixels
Display aspect ratio : 4:3
Frame rate : 25.000 fps
Color space : YUV
Chroma subsampling : 4:2:0
Bit depth : 8 bits
Scan type : Progressive
Compression mode : Lossy
Bits/(Pixel*Frame) : 0.113
Stream size : 234 MiB (88%)
Writing library : XviD 1.2.1 (UTC 2008-12-04)


Audio

ID : 1
Format : MPEG Audio
Format version : Version 1
Format profile : Layer 3
Mode : Joint stereo
Mode extension : MS Stereo
Codec ID : 55
Codec ID/Hint : MP3
Duration : 42mn 41s
Bit rate mode : Constant
Bit rate : 96.0 Kbps
Channel(s) : 2 channels
Sampling rate : 44.1 KHz
Compression mode : Lossy
Delay relative to video : 40ms
Stream size : 29.3 MiB (11%)
Alignment : Aligned on interleaves
Interleave, duration : 26 ms (0.65 video frame)
Interleave, preload duration : 522 ms
Writing library : LAME3.98
Language : Hindi



http://img231.imageshack.us/img231/3671/screenshoots.png



http://img442.imageshack.us/img442/8182/vlcsnap2012012512h57m30.png



http://img26.imageshack.us/img26/5039/vlcsnap2012012512h57m25.png



http://img854.imageshack.us/img854/5219/vlcsnap2012012512h57m48.png



http://img341.imageshack.us/img341/8280/vlcsnap2012012512h58m01.png



http://img52.imageshack.us/img52/455/vlcsnap2012012512h58m09.png



http://img839.imageshack.us/img839/9273/vlcsnap2012012512h58m29.png

Related torrents

Torrent NameAddedSizeSeedLeechHealth
1 Year+ - in TV shows318.88 MB10
1 Year+ - in TV shows390.7 MB00
1 Year+ - in TV shows437.06 MB10
1 Year+ - in TV shows301.59 MB11
1 Year+ - in TV shows346.32 MB11

Comments (0 Comments)




Please login or create a FREE account to post comments

Latest Searches

| SisLovesMe 16 08 16 Blair Williams XviD iPT Team avi | baking american | Ngi Thy Y c | dream aquarium | the thighs | kenzie taylor feet | timea luberc | Young and Corrupt Anal Edition Brazzers | Bouncy Audition | 8ball 7 mjg |