Quick Browse
Movies
TV shows
Music
Games
Applications
Anime
Other

Donate and Support

Friends
Torrents.me
Torrent Download
Free Movies
1337x
RARBG
Torrent Downloads

MTV Roadies 9 - Pune Auditions [Ep 4] [Uncensored] by !!!---greatgambler---!!!


    Seeders : 1      Leechers : 0
Hash :E9E2F5ED2A82D1F3F74D48FE9CBBE206CFA0AC2A
Added :1 Year+ by greatgambler in TV shows
Size :318.88 MB
Stream :Watch Full Movies Online @ Movie4u
Share :








Warning! Do not Download Torrents Without a VPN!
Your IP Address is .   And Location is
Your Internet Provider and Government can track your torrent Activity!  Hide your IP ADDRESS with a VPN!
We Strongly Recommend Using SpyOFF Torrent VPN to Anonymize your Torrenting. It's FREE For 15 Days!

Note :

Please Update (Trackers Info) Before Downloading Torrents to See Updated Seeders And Leechers for Batter Download Speed.

Trackers List

Tracker NameLast CheckStatusSeedersLeechers




Torrent File Content (1 file)


     MTV Roadies 9 - Pune Auditions [Ep 4] [Uncensored] by !!!---greatgambler---!!!.flv -
318.88 MB



Description



http://img15.imageshack.us/img15/8163/greatgambler.jpg



http://img819.imageshack.us/img819/5598/roadies1.jpg








[size=4][color=green]MTV Roadies 9 : Everything or Nothing is the ninth season of MTV Roadies, a reality television show aired on MTV India . The auditions started on 16 September from Pune following with Audition in Kolkata , Delhi, Chandhigarh and Hyderabad. Part of the season will take place in United States of America. The show started airing on MTV India from 7th January 2012 and every new episode airs on Saturdays at 7 P.M. IST.[/color][/size]





http://img18.imageshack.us/img18/6966/infoum.png


[size=5][color=green]General[/color][/size]

[size=4][color=teal]Format : Flash Video
File size : 319 MiB
Duration : 49mn 46s
Overall bit rate : 896 Kbps
Writing application : Lavf53.6.0[/color][/size]

[size=5][color=green]Video[/color][/size]

[size=4][color=teal]Format : Sorenson Spark
Codec ID : 2
Duration : 49mn 46s
Bit rate : 781 Kbps
Width : 515 pixels
Height : 386 pixels
Display aspect ratio : 4:3
Frame rate mode : Constant
Frame rate : 25.000 fps
Bit depth : 8 bits
Bits/(Pixel*Frame) : 0.157
Stream size : 278 MiB (87%)
[/color][/size]

[size=5][color=green]Audio[/color][/size]

[size=4][color=teal]Format : MPEG Audio
Format version : Version 2
Format profile : Layer 3
Mode : Joint stereo
Mode extension : MS Stereo
Codec ID : 2
Codec ID/Hint : MP3
Duration : 49mn 45s
Bit rate mode : Constant
Bit rate : 8 000 bps
Channel(s) : 2 channels
Sampling rate : 22.05 KHz
Compression mode : Lossy
Stream size : 2.85 MiB (1%)[/color][/size]


http://img231.imageshack.us/img231/3671/screenshoots.png



http://img43.imageshack.us/img43/7149/vlcsnap2012013120h00m14.png



http://img526.imageshack.us/img526/6370/vlcsnap2012013120h00m29.png



http://img692.imageshack.us/img692/1781/vlcsnap2012013120h00m38.png



http://img51.imageshack.us/img51/9379/vlcsnap2012013120h00m58.png



http://img197.imageshack.us/img197/2261/vlcsnap2012013120h01m15.png



http://img402.imageshack.us/img402/3272/vlcsnap2012013120h01m26.png










[size=5][color=red]PLEASE APPRICIATE UPLOADERS WORK BY ADDING YOUR VALUABLE COMMENTS[/color][/size]

Related torrents

Torrent NameAddedSizeSeedLeechHealth
1 Year+ - in TV shows266.76 MB15
1 Year+ - in TV shows390.7 MB00
1 Year+ - in TV shows437.06 MB10
1 Year+ - in TV shows301.59 MB11
1 Year+ - in TV shows346.32 MB11

Comments (0 Comments)




Please login or create a FREE account to post comments

Latest Searches

| Mickey Mouse S04E01 XviD AFG | t i and tiny the family hustle s01e03 | tara 8 ans | Public Disgrace MANDY | aquarelle guitar quartet spirit of brazil | jake miller 2017 | AIRBRUSH V 4 1 | ACDC THE RAZORS EDGE | 001 Bukkake Double Hole Fuck | LOLTA SEX |