Quick Browse
Movies
TV shows
Music
Games
Applications
Anime
Other
Facebook
Advertising

Friends
Torrent Download
Movie4u
1337x.to
Torrent Downloads




Ma Premiere fois (2012) FRENCH TS XviD-MiSTERE


    Seeders : 59      Leechers : 1
Hash :9A696C5A68BD61A2D7825D645051DE4D6C4BB52F
Added :1 Year+ by L0LPLZVerified torrent uploader in Movies
Size :701.89 MB
Stream :WATCH ONLINE @ Movie4u


Ma Premiere fois (2012) FRENCH TS XviD-MiSTERE
Free and Fast Download with Usenet 300GB+ free







Trackers List

Tracker NameLast CheckStatusSeedersLeechers




Torrent File Content (6 files)


Ma Première fois (2012) FRENCH TS XviD-MiSTERE
     Ma Première fois (2012) FRENCH TS XviD-MiSTERE.rar -
701.69 MB

     Ma-premiere-fois-2012-affiche.jpg -
200.29 KB

     Ma Première fois (2012) FRENCH TS XviD-MiSTERE.nfo -
5.17 KB

     LISEZ MOI - Important.txt -
1.99 KB

     Torrent downloaded from Extratorrent.com.txt -
48 bytes

     Torrent downloaded from Demonoid.me.txt -
42 bytes



Description



Ma Première fois (2012) FRENCH TS XviD-MiSTERE
Format: Xvid

IDMB: http://www.imdb.com/title/tt2152779/
Audio : SUCKIT - Merci beaucoup :P ;)
Video: RELIZLAB fichiers source - Merci également! ;) :P

Date de sortie: 18 janvier 2012 (1h 35min)
Réalisé par: Marie-Castille Mention-Schaar
Avec: Esther Comar, Martin Cannavo, Vincent Perez plus
Genre: Drame, Romance
Nationalité: Français


Synopsis:
Zachary a 20 ans. Sombre et indépendant, il collectionne les conquêtes amoureuses et les échecs scolaires. Sarah a 18 ans. Première de la classe, fragile, elle comble ses manques affectifs grâce à une maîtrise parfaite de sa vie. Rien ne devrait les rapprocher et pourtant, l’année du bac, durant six mois, ils vont vivre un amour contre lequel on ne peut rien, le vrai, le grand, celui qui marque une vie pour toujours.
Video
ID : 0
Format : MPEG-4 Visual
Format profile : Advanced [email protected]
Format settings, BVOP : 2
Format settings, QPel : No
Format settings, GMC : No warppoints
Format settings, Matrix : Default (H.263)
Codec ID : XVID
Codec ID/Hint : XviD
Duration : 1h 35min
Bit rate : 1 349 Kbps
Width : 720 pixels
Height : 304 pixels
Display aspect ratio : 2.35:1
Frame rate : 25.000 fps
Color space : YUV
Chroma subsampling : 4:2:0
Bit depth : 8 bits
Scan type : Progressive
Compression mode : Lossy
Bits/(Pixel*Frame) : 0.247
Stream size : 1.08 GiB (91%)

Audio
ID : 1
Format : MPEG Audio
Format version : Version 1
Format profile : Layer 3
Mode : Joint stereo
Mode extension : MS Stereo
Codec ID : 55
Codec ID/Hint : MP3
Duration : 1h 35min
Bit rate mode : Constant
Bit rate : 128 Kbps
Channel(s) : 2 channels
Sampling rate : 44.1 KHz
Compression mode : Lossy
Stream size : 105 MiB (9%)
Alignment : Aligned on interleaves
Interleave, duration : 40 ms (1.00 video frame)
Writing library : LAME3.98r
Encoding settings : -m j -V 4 -q 2 -lowpass 17 -b 128



Salutations à Tout Ceux qui font leur possible pour soutenir le P2P Et La Scène ;)

Related torrents

Torrent NameAddedSizeSeedLeechHealth
1 Year+ - in Movies4.37 GB445
1 Year+ - in Other1.37 GB97
1 Year+ - in Other1.37 GB239
1 Year+ - in Other1.37 GB2814
1 Year+ - in Other1.37 GB32107

Comments (8 Comments)




marianne1985
+1

Added 1 Year+
Quel est le mot de passe pour le décoder??????
Je ne le trouve pas merci d'avance
Michel040155
+1

Added 1 Year+
Quel est le mot de passe pour le décoder??????
Je ne le trouve pas merci d'avance

Le lien donné pour trouver le mot de passe ne fonctionne pas.

Merci à vous
meysamkh
+1

Added 1 Year+
sil vous plait ; vous m'explique apropo de le mot de passer pour le decoder?
bien sur Le lien donné pour trouver le mot de passe ne fonctionne pas.

Michel040155

Added 1 Year+
Quelle est la solution alors

Merci
meysamkh

Added 1 Year+
la solution ?! je ne sias pas mais je sais le mot de passer qu-ill est dans LISEZ MOI file n'est pas correct; dunc on doit avoir le correct de passer !
aide moi , sil vous plait :(
mimie05
» Downloaded this torrent Downloaded this torrent
+1

Added 1 Year+
Bonjour. Je suis dans le même problème que ceux cités auparavant. J'ai fait ce qui était demandé dans lisez-moi pour obtenir le mot de passe mais celui-ci n'est pas correct. Est-il possible d'obtenir le bon?
Merci d'avance.
farouk1301
+1

Added 1 Year+
passez votre chemin
c'est une arnaque.......
gazole

Added 1 Year+
oui ben moi pareil !!! mais quand je vais sur le lien il n'y a carrément pas de mot de passe ni d'enquête d'ailleurs ^^
Please login or create a FREE account to post comments

Latest Searches

| Extreme Sluts 7 | Bang Real Teens Dallas Black Is A Fresh Teen Amateur | Westworld S01E10 The Bicameral Mind 720p HBO WEBRip | assassins creed sea | woman with big back | stereoscopic player 2 1 1 crack | Radiohead how to | like lm gonna lose you Meghan Trainor | EP 04 | once upon s06e10 720p |