Quick Browse
Movies
TV shows
Music
Games
Applications
Anime
Other
Facebook
Advertising

Friends
Torrent Download
Movie4u
1337x.to
Torrent Downloads




Verified torrent MacGruber [DVD5] [ENG] [AC3] [Hannspree]


    Seeders : 0      Leechers : 2
Hash :36AB31FAAC449A316EE7409781001F499650C82E
Added :1 Year+ by HannspreeVerified torrent uploader in Movies
Size :2 GB
Stream :WATCH ONLINE @ Movie4u


MacGruber [DVD5] [ENG] [AC3] [Hannspree]
Free and Fast Download with Usenet 300GB+ free







Trackers List

Tracker NameLast CheckStatusSeedersLeechers




Torrent File Content (13 files)


MacGruber
    MacGruber [DVD5]
          VIDEO_TS/VIDEO_TS.BUP -
12 KB

          VIDEO_TS/VIDEO_TS.IFO -
12 KB

          VIDEO_TS/VIDEO_TS.VOB -
58 KB

          VIDEO_TS/VTS_01_0.BUP -
66 KB

          VIDEO_TS/VTS_01_0.IFO -
66 KB

          VIDEO_TS/VTS_01_0.VOB -
58 KB

          VIDEO_TS/VTS_01_1.VOB -
1023.97 MB

          VIDEO_TS/VTS_01_2.VOB -
1021.77 MB

          MacGruber [Images]/MacGruber [Cover].jpg -
931 KB

          MacGruber [Images]/MacGruber [Disc].jpg -
21.53 KB

          MacGruber [Images]/MacGruber1.jpg -
158.09 KB

          MacGruber [Images]/MacGruber2.jpg -
137.44 KB

     MacGruber [DVD5].NFO -
4.55 KB



Description



=====================================================================================
[ Another free, high quality, ready to burn DVD I will be adding new torrents on a daily basis - Remember to seed ]
=====================================================================================
MOVIE TITLE: MacGruber
LANGUAGE: English
MOVIE SUBS: No
BURN TESTED: Yes
FORMAT: Pal
GENRE: Action | Comedy
RUNTIME: 90 Minutes
YEAR: 2010
IMDB LINK: http://www.imdb.com/title/tt1470023/
=====================================================================================
MOVIE DESC:

GENERAL:
Complete name : MacGruber [DVD5]
Format : MPEG-PS
File size : 1.99 GB
Duration : 43mn 53s
Overall bit rate : 3 262 Kbps

VIDEO:
ID : 224 (0xE0)
Format : MPEG Video
Format version : Version 2
Format profile : [email protected]
Format settings, BVOP : Yes
Format settings, Matrix : Default
Duration : 43mn 53s
Bit rate mode : Variable
Bit rate : 3 005 Kbps
Nominal bit rate : 9 608 Kbps
Width : 720 pixels
Height : 576 pixels
Display aspect ratio : 16:9
Frame rate : 24.000 fps
Standard : PAL
Color space : YUV
Chroma subsampling : 4:2:0
Bit depth : 8 bits
Scan type : Progressive
Scan order : 2:2:2:2:2:2:2:2:2:2:2:3 Pulldown
Bits/(Pixel*Frame) : 0.302
Stream size : 943 MiB (92%)

AUDIO:
ID : 128 (0x80)
Format : AC-3
Format/Info : Audio Coding 3
Mode extension : CM (complete main)
Duration : 43mn 53s
Bit rate mode : Constant
Bit rate : 192 Kbps
Channel(s) : 2 channels
Channel positions : Front: L R
Sampling rate : 48.0 KHz
Stream size : 60.3 MiB (6%)
=====================================================================================
MOVIE SPECS:

http://leetpic.com/images/macgruberc.jpg


Only one American hero has earned the rank of Green Beret, Navy SEAL and Army Ranger. Just one operative has been awarded 16 purple hearts, 3 Congressional Medals of Honor and 7 presidential medals of bravery. And only one guy is man enough to still sport a mullet. In 2010, Will Forte brings Saturday Night Live's clueless soldier of fortune to the big screen in the action comedy MacGruber.

In the 10 years since his fiancée was killed, special op MacGruber has sworn off a life of fighting crime with his bare hands. But when he learns that his country needs him to find a nuclear warhead that's been stolen by his sworn enemy, Dieter Von Cunth (Val Kilmer), MacGruber figures he's the only one tough enough for the job.

Assembling an elite team of experts Lt. Dixon Piper (Ryan Phillippe) and Vicki St. Elmo (Kristen Wiig) MacGruber will navigate an army of assassins to hunt down Cunth and bring him to justice. His methods may be unorthodox. His crime scenes may get messy. But if you want the world saved right, you call in MacGruber.
=====================================================================================
TRACKER:
http://torrentbucket.org/announce
http://denis.stalker.h3q.com:6969/announce
http://nemesis.1337x.org/announce
http://exodus.1337x.org/announce
http://tracker.publicbt.com/announce
http://10.rarbg.com/announce
http://tracker.ilibr.org:6969/announce
http://rt.beeretracker.net/announce.php
http://red.tracker.prq.to/announce
http://tpb.tracker.prq.to/announce
=====================================================================================
[FOOT NOTE]
If you are happy with this download, it would be nice to hear your views or comments that you might have. Enjoy
=====================================================================================
Screen Shots Of MacGruber

http://leetpic.com/images/macgruber1.jpg

=====================================================================================
http://leetpic.com/images/macgruber2.jpg


=====================================================================================

Related torrents

Torrent NameAddedSizeSeedLeechHealth
Verified torrent
1 Year+ - in Movies1.68 GB42
Verified torrent
1 Year+ - in Movies1.63 GB03
Verified torrent
1 Year+ - in Movies2.14 GB28
Verified torrent
1 Year+ - in Movies869.42 MB55
Verified torrent
1 Year+ - in Movies1.29 GB10

Comments (0 Comments)




Please login or create a FREE account to post comments

Latest Searches

| dolly partons a circle of love | ddfbusty 16 06 14 romi rain and jaylene rio sd | me lla | the a to z of sufism the a to z guide series true pdf prg pdf | WORKING FASHION | bananarama video | pokemon sword | lesbians Alexis | hd superman 1080p | conjunto primavera perdoname mi amor 2002 320kbps |