Quick Browse
Movies
TV shows
Music
Games
Applications
Anime
Other
Facebook
Advertising

Friends
Torrent Download
Movie4u
1337x.to
Torrent Downloads




Verified torrent Machine Gun Preacher 2011 DVDRIP XViD AC3-26K


    Seeders : 1      Leechers : 0
Hash :5CE22F9B2ACF620622A0CA2628BB058582AC719A
Added :1 Year+ by memory100Verified torrent uploader in Movies
Size :1.94 GB
Stream :WATCH ONLINE @ Movie4u


Machine Gun Preacher 2011 DVDRIP XViD AC3-26K
Free and Fast Download with Usenet 300GB+ free







Trackers List

Tracker NameLast CheckStatusSeedersLeechers




Torrent File Content (9 files)


Machine Gun Preacher 2011 DVDRIP XViD AC3-26K
     att-networks.com.txt -
39 bytes

     HDSceneRG.txt -
115 bytes

     Machine Gun Preacher 2011 DVDRIP XViD AC3-26K.avi -
1.89 GB

     Machine Gun Preacher 2011 DVDRIP XViD AC3-26K.nfo -
3.34 KB

     sample.avi -
45.32 MB

     sceneunderground.org.txt -
77 bytes

     Torrent downloaded from Demonoid.me.txt -
46 bytes

     Torrent downloaded from rarbg.com.txt.txt -
0 bytes

     YouTube Latest Releases And Archive.txt -
80 bytes



Description



http://img171.imageshack.us/img171/589/machg.jpg

[code]
Machine Gun Preacher 2011 DVDRIP XViD AC3-26K

Imdb:
http://www.imdb.com/title/tt1586752/

Plot:
The story of Sam Childers, a former drug-dealing biker tough guy who found God and became a crusader

for hundreds of Sudanese children who've been forced to become soldiers.

Sources:
Cinemagic thnxs

Notes:
WOW A DVDSCR!!! WELL ADDED A FEW FILTERS TO THE VIDEO TO MAKE IT LOOK NICE!!
:p ENJOY!

Greetz:
Xtreme

Encode|FYA|ILLUMANTI|CM8|RX|VISION|HDSCENE|NIGHTMAREZ|xTriLL|DTRG|CRYS|REMIXHD|BIDA|RX|REFILL|INSPiRAL

|SIC|ZOMBIESZ|HOPE|Anonymous|GooN
To all the people who have helped me :P you know who you are

Anything to offer email us @: [email protected]

Video
ID : 0
Format : MPEG-4 Visual
Format profile : Advanced [email protected]
Format settings, BVOP : 2
Format settings, QPel : No
Format settings, GMC : No warppoints
Format settings, Matrix : Default (H.263)
Codec ID : XVID
Codec ID/Hint : XviD
Duration : 2h 3mn
Bit rate : 1 800 Kbps
Width : 720 pixels
Height : 300 pixels
Display aspect ratio : 2.40:1
Frame rate : 25.000 fps
Color space : YUV
Chroma subsampling : 4:2:0
Bit depth : 8 bits
Scan type : Progressive
Compression mode : Lossy
Bits/(Pixel*Frame) : 0.333
Stream size : 1.55 GiB (82%)
Writing library : XviD 64

Audio
ID : 1
Format : AC-3
Format/Info : Audio Coding 3
Mode extension : CM (complete main)
Codec ID : 2000
Duration : 2h 3mn
Source duration : 2h 3mn
Bit rate mode : Constant
Bit rate : 384 Kbps
Channel(s) : 2 channels
Channel positions : Front: L R
Sampling rate : 44.1 KHz
Bit depth : 16 bits
Compression mode : Lossy
Stream size : 339 MiB (17%)
Alignment : Aligned on interleaves
Interleave, duration : 35 ms (0.87 video frame)

[/code]
Screens:
http://i.imgur.com/PHA1Y.png

http://i.imgur.com/2nt40.png

http://img36.imageshack.us/img36/2528/vlcsnap2012022811h30m17.png

http://img829.imageshack.us/img829/1705/vlcsnap2012022811h30m31.png

http://img444.imageshack.us/img444/1458/vlcsnap2012022811h30m35.png

http://img52.imageshack.us/img52/9256/vlcsnap2012022811h30m40.png


Alternative screens:
http://www.hotimg.com/image/n6bTdyB
http://dippic.com/ihymmild7in6
http://imgdepot.org/show/20120228/2/30673_vlcsnap_2012_02_28_11h30m17s133.png
http://www.imageporter.com/uy4x9zknetst/vlcsnap-2012-02-28-11h30m31s8.png

http://img851.imageshack.us/img851/5503/26ks.jpg

Thank you smallz for banner!

Related torrents

Torrent NameAddedSizeSeedLeechHealth
1 Year+ - in Movies1.38 GB00
1 Year+ - in Movies2.05 GB44
1 Year+ - in Movies2.05 GB525
1 Year+ - in Movies2.05 GB828
1 Year+ - in Movies2.05 GB16

Comments (0 Comments)




Please login or create a FREE account to post comments

Latest Searches

| christmas boyz | Jessi Empera extreme 100 | dragon ball super episode 05 english | Private Couples 2 | Mockingjay Part 2 4K | Shut In 2016 TS L | Riley Reyes Hot Blonde Takes On Mandingo | 720p Frequency S01e09 | redskins cardinals 2016 | filmfare 61st |